Action - แอ็คชัน Drama - ดราม่า War - สงคราม

[จีน]-[Zoom] Wolf Warrior II (2017) | กองพันหมาป่า (720p)-[พากย์ไทยโรง + จีน 2.0]

Wolf Warrior II


Wolf Warrior II ผลงานแอคชั่นสุดเดือดจากแดนมังกร ที่สร้างปรากฏการณ์ความมันส์ระดับฮอลลีวูด ขึ้นแท่นภาพยนตร์ทำรายได้มากที่สุดตลอดกาลของประเทศจีน โดยกวาดรายได้นับจากวันฉายไปกว่า 852,627,161 ล้านเหรียญสหรัฐ ขึ้นแท่นหนึ่งใน 5 อันดับหนังทำเงินสูงสุดทั่วโลกปี 2017 แซงหน้าภาพยนตร์ฟอร์มยักษ์ฮอลลีวูด อย่าง Spiderman : Home Coming ,Wonder woman,และTransformer : The Last Knight กับการปะทะกันของสองแอคชั่นสตาร์ขาบู๊ที่โลกต้องจับตา “อู๋จิง” จาก SPL และ “แฟรงค์ กิลโล” จาก Captain America: The Winter Soldier การันตีความมันส์พร้อมเนรมิตฉากแอคชั่นสุดเดือดโดยทีมสร้างหนังหนังซูเปอร์ฮีโร่ฟอร์มยักษ์อย่าง Captain America พร้อมพาผู้ชมสัมผัสเรื่องราวสุดเข้มข้นและฉากการต่อสู้ที่ดุเดือด สะใจ แบบที่คอหนังบู๊ไม่ควรพลาดด้วยประการทั้งปวง

Format : Matroska
File size : 2.36 GiB
Duration : 2 h 3 min
Overall bit rate : 2 749 kb/s
Movie name : Wolf.Warrior.II.2017.HD720P.X264.AC3.ThaiRong_Finverr4Movie.com

Video
ID : 1
Format : AVC
Format/Info : Advanced Video Codec
Format profile : Main@L3.1
Format settings, CABAC : Yes
Format settings, ReFrames : 3 frames
Codec ID : V_MPEG4/ISO/AVC
Duration : 2 h 3 min
Bit rate : 2 500 kb/s
Width : 1 280 pixels
Height : 720 pixels
Display aspect ratio : 16:9
Frame rate mode : Constant
Frame rate : 23.976 (24000/1001) FPS
Color space : YUV
Chroma subsampling : 4:2:0
Bit depth : 8 bits
Scan type : Progressive
Bits/(Pixel*Frame) : 0.113
Stream size : 2.09 GiB (88%)
Title : Wolf.Warrior.II.2017.HD720P.X264.AC3.ThaiRong_Finverr4Movie.com
Writing library : x264 core 80 r1376 3feaec2
Encoding settings : cabac=1 / ref=3 / deblock=1:0:0 / analyse=0x1:0x111 / me=umh / subme=5 / psy=1 / psy_rd=0.0:0.0 / mixed_ref=1 / me_range=16 / chroma_me=1 / trellis=1 / 8x8dct=0 / cqm=0 / deadzone=21,11 / fast_pskip=1 / chroma_qp_offset=0 / threads=12 / sliced_threads=0 / nr=0 / decimate=1 / mbaff=0 / constrained_intra=0 / bframes=3 / b_pyramid=0 / b_adapt=1 / b_bias=0 / direct=3 / wpredb=1 / wpredp=2 / keyint=250 / keyint_min=25 / scenecut=40 / rc_lookahead=40 / rc=abr / mbtree=1 / bitrate=2500 / ratetol=1.0 / qcomp=0.60 / qpmin=10 / qpmax=51 / qpstep=4 / ip_ratio=1.40 / aq=1:1.00
Language : Chinese
Default : Yes
Forced : No

Audio #1
ID : 2
Format : AC-3
Format/Info : Audio Coding 3
Mode extension : CM (complete main)
Format settings, Endianness : Big
Codec ID : A_AC3
Duration : 2 h 3 min
Bit rate mode : Constant
Bit rate : 192 kb/s
Channel(s) : 2 channels
Channel positions : Front: L R
Sampling rate : 48.0 kHz
Frame rate : 31.250 FPS (1536 spf)
Bit depth : 16 bits
Compression mode : Lossy
Stream size : 169 MiB (7%)
Title : AC-3 ThaiRong 2.0 By ~Mr.Captain~
Language : Thai
Default : Yes
Forced : No

Audio #2
ID : 3
Format : AAC
Format/Info : Advanced Audio Codec
Format profile : LC
Codec ID : A_AAC
Duration : 2 h 3 min
Bit rate : 128 kb/s
Channel(s) : 2 channels
Channel positions : Front: L R
Sampling rate : 48.0 kHz
Frame rate : 46.875 FPS (1024 spf)
Compression mode : Lossy
Stream size : 112 MiB (5%)
Title : AAC Chinese 2.0
Language : Chinese
Default : No
Forced : No

  • เปลี่ยนชื่อไฟล์ตามลำดับก่อนเเยกไฟล์ เช่น
    • Wolf.Warrior.II.part1.rar
    • Wolf.Warrior.II.part2.rar
    • Wolf.Warrior.II.part3.rar
  • สามารถดาวน์โหลดสลับต่างเว็บได้
  • ไฟล์เสียสามารถซ่อมได้

FINVERR4MOVIE.COM

Facebook Comments