Action - แอ็คชัน Adventure - ผจญภัย Fantasy - แฟนตาซี Sci-fi - ไซ-ไฟ

[ฝรั่ง]-[Mini-HD] Valerian and the City of a Thousand Planets (2017) | วาเลเรียน พลิกจักรวาล (720p)-[พากย์ไทยโรง + อังกฤษ 2.0]-[บรรยายเกาหลี]

Valerian and the City of a Thousand Planets


Valerian and the City of a Thousand Planets มหึมาภาพยนตร์แอคชั่น-ไซไฟฟอร์มยักษ์ทุนสร้างกว่า 170 ล้านเหรียญฯ “Valerian and the City of a Thousand Planets” (วาเลอเรี่ยน แอนด์ เดอะ ซิตี้ ออฟ อะ ทาวเซนด์แพลเน็ตส์) ที่สร้างจากงานไซไฟคอมมิคส์อันดับหนึ่งของ บอกเล่าถึงเรื่องราวของ วาเลอเรี่ยน (เดน ดีฮาน) และ ลอเรลีน (คาร่า เดเลวีน) เป็นเจ้าหน้าที่ปฏิบัติการพิเศษขององค์การปกครองเขตแดนมนุษยชาติ พวกเขามีหน้าที่พิทักษ์สันติสุขให้กับประชาชนทั่วจักรวาลวันหนึ่งเมื่อพวกเขาได้รับคำสั่งจากผู้บัญชาการ อารุน ฟิลลิตต์ (ไคลฟ์ โอเว่น) ทั้งสองจึงต้องออกเดินทางไปยังมหานครอัลฟ่า ดินแดนสุดอัศจรรย์ใจกลางอวกาศที่มีสิ่งมีชีวิตเป็นหมื่นๆ สปีชีส์จากทั่วทุกมุมจักรวาลอาศัยอยู่ร่วมกัน แต่โชคไม่ดีนักที่มีหายนะกำลังแฝงตัวคืบคลานอยู่ในความมืด และกำลังจ้องจะทำลายเผ่าพันธุ์มนุษย์ให้หมดสิ้น วาเลอเรี่ยนและลอเรลีนจึงต้องออกผจญภัยครั้งยิ่งใหญ่ ทะยานฝ่าสมรภูมิกาแลคซี่ เพื่อปกป้องนาคตของทุกเผ่าพันธุ์ไปพร้อมกัน

Format : Matroska
File size : 3.72 GiB
Duration : 2 h 16 min
Overall bit rate : 3 896 kb/s
Movie name : Valerian.and.the.City.of.a.Thousand.Planets.2017.720p.KORSUB.HDRip.x264.ThaiRong2.0_Finverr4Movie.com

Video
ID : 1
Format : AVC
Format/Info : Advanced Video Codec
Format profile : High@L4.1
Format settings, CABAC : Yes
Format settings, ReFrames : 4 frames
Codec ID : V_MPEG4/ISO/AVC
Duration : 2 h 16 min
Bit rate : 3 500 kb/s
Width : 1 280 pixels
Height : 536 pixels
Display aspect ratio : 2.40:1
Frame rate mode : Constant
Frame rate : 23.976 (24000/1001) FPS
Color space : YUV
Chroma subsampling : 4:2:0
Bit depth : 8 bits
Scan type : Progressive
Bits/(Pixel*Frame) : 0.213
Stream size : 3.32 GiB (89%)
Title : Valerian.and.the.City.of.a.Thousand.Planets.2017.720p.KORSUB.HDRip.x264.ThaiRong2.0_Finverr4Movie.com
Writing library : x264 core 148 r2795M aaa9aa8
Encoding settings : cabac=1 / ref=4 / deblock=1:0:0 / analyse=0x3:0x113 / me=umh / subme=8 / psy=1 / psy_rd=1.00:0.00 / mixed_ref=1 / me_range=16 / chroma_me=1 / trellis=2 / 8x8dct=1 / cqm=0 / deadzone=21,11 / fast_pskip=1 / chroma_qp_offset=-2 / threads=40 / lookahead_threads=4 / sliced_threads=0 / nr=0 / decimate=1 / interlaced=0 / bluray_compat=0 / constrained_intra=0 / bframes=3 / b_pyramid=2 / b_adapt=2 / b_bias=0 / direct=3 / weightb=1 / open_gop=0 / weightp=2 / keyint=250 / keyint_min=23 / scenecut=40 / intra_refresh=0 / rc_lookahead=50 / rc=abr / mbtree=1 / bitrate=3500 / ratetol=1.0 / qcomp=0.60 / qpmin=0 / qpmax=69 / qpstep=4 / ip_ratio=1.40 / aq=1:1.00
Language : Korean
Default : Yes
Forced : No

Audio #1
ID : 2
Format : AC-3
Format/Info : Audio Coding 3
Mode extension : CM (complete main)
Format settings, Endianness : Big
Codec ID : A_AC3
Duration : 2 h 16 min
Bit rate mode : Constant
Bit rate : 192 kb/s
Channel(s) : 2 channels
Channel positions : Front: L R
Sampling rate : 48.0 kHz
Frame rate : 31.250 FPS (1536 spf)
Bit depth : 16 bits
Compression mode : Lossy
Delay relative to video : -43 ms
Stream size : 188 MiB (5%)
Title : AC-3 ThaiRong 2.0 By ~Mr.Captain~
Language : Thai
Default : Yes
Forced : No

Audio #2
ID : 3
Format : AAC
Format/Info : Advanced Audio Codec
Format profile : LC
Codec ID : A_AAC
Duration : 2 h 16 min
Bit rate : 224 kb/s
Channel(s) : 2 channels
Channel positions : Front: L R
Sampling rate : 48.0 kHz
Frame rate : 46.875 FPS (1024 spf)
Compression mode : Lossy
Delay relative to video : -43 ms
Stream size : 219 MiB (6%)
Title : AAC English 2.0
Language : English
Default : No
Forced : No

  • เปลี่ยนชื่อไฟล์ตามลำดับก่อนเเยกไฟล์ เช่น
    • Valerian.and.the.City.of.a.Thousand.Planets.part1.rar
    • Valerian.and.the.City.of.a.Thousand.Planets.part2.rar
    • Valerian.and.the.City.of.a.Thousand.Planets.part3.rar
  • สามารถดาวน์โหลดสลับต่างเว็บได้
  • ไฟล์เสียสามารถซ่อมได้

FINVERR4MOVIE.COM

Facebook Comments