Drama - ดราม่า Horror - สยองขวัญ Thriller - ระทึกขวัญ

[ฝรั่ง] It (2017) | อิท โผล่จากนรก (720p)-[พากย์ไทยโรง + อังกฤษ 2.0]-[บรรยายเกาหลี]

It


It ภาพยนตร์แนวทริลเลอร์สยองขวัญ ผลงานจากนิวไลน์ ซีเนม่า เรื่อง “IT” กำกับฯ โดย อันเดรส มูเชตติ (“Mama”) สร้างขึ้นจากนิยายที่ได้รับความนิยมอย่างสูง ผลงานของสตีเฟน คิง ในชื่อเดียวกันซึ่งสร้างความสยองขวัญให้กับผู้อ่านมานานหลายทศวรรษ เมื่อเด็กๆ เริ่มหายตัวไปจากเมืองเดอร์รี่ รัฐเมน เด็กๆ กลุ่มหนึ่งต้องเผชิญกับความกลัวครั้งใหญ่เมื่อพวกเขาต้องพบกับตัวตลกร้ายที่ชื่อว่าเพนนีไวซ์ ซึ่งมีประวัติฆาตกรรมและใช้ความรุนแรงมาอย่างโชกโชนเมื่อหลายศตวรรษก่อน

Format : Matroska
File size : 4.19 GiB
Duration : 2 h 12 min
Overall bit rate : 4 537 kb/s
Movie name : IT.2017.720p.KORSUB.HDRip.x264.AC-32.0.ThaiRong2.0_CpT@CtHts

Video
ID : 1
Format : AVC
Format/Info : Advanced Video Codec
Format profile : High@L4.1
Format settings, CABAC : Yes
Format settings, ReFrames : 3 frames
Codec ID : V_MPEG4/ISO/AVC
Duration : 2 h 12 min
Bit rate mode : Variable
Bit rate : 4 117 kb/s
Maximum bit rate : 14.0 Mb/s
Width : 1 280 pixels
Height : 536 pixels
Display aspect ratio : 2.40:1
Frame rate mode : Constant
Frame rate : 30.000 FPS
Color space : YUV
Chroma subsampling : 4:2:0
Bit depth : 8 bits
Scan type : Progressive
Bits/(Pixel*Frame) : 0.200
Stream size : 3.80 GiB (91%)
Title : IT.2017.720p.KORSUB.HDRip.x264.AC-32.0.ThaiRong2.0_CpT@CtHts
Writing library : x264 core 148 r2744 b97ae06
Encoding settings : cabac=1 / ref=4 / deblock=1:-1:-1 / analyse=0x3:0x133 / me=umh / subme=10 / psy=1 / psy_rd=1.00:0.15 / mixed_ref=1 / me_range=24 / chroma_me=1 / trellis=2 / 8x8dct=1 / cqm=0 / deadzone=21,11 / fast_pskip=1 / chroma_qp_offset=-3 / threads=12 / lookahead_threads=1 / sliced_threads=0 / slices=4 / nr=0 / decimate=1 / interlaced=0 / bluray_compat=1 / constrained_intra=0 / bframes=3 / b_pyramid=1 / b_adapt=2 / b_bias=0 / direct=3 / weightb=1 / open_gop=1 / weightp=0 / keyint=29 / keyint_min=1 / scenecut=40 / intra_refresh=0 / rc_lookahead=30 / rc=crf / mbtree=1 / crf=17.5 / qcomp=0.60 / qpmin=10 / qpmax=51 / qpstep=4 / vbv_maxrate=14000 / vbv_bufsize=14000 / crf_max=0.0 / nal_hrd=vbr / filler=0 / ip_ratio=1.40 / aq=1:1.00
Language : English
Default : Yes
Forced : No
Color range : Full
Color primaries : BT.709
Transfer characteristics : BT.709
Matrix coefficients : BT.709

Audio #1
ID : 2
Format : AC-3
Format/Info : Audio Coding 3
Mode extension : CM (complete main)
Format settings, Endianness : Big
Codec ID : A_AC3
Duration : 2 h 12 min
Bit rate mode : Constant
Bit rate : 192 kb/s
Channel(s) : 2 channels
Channel positions : Front: L R
Sampling rate : 48.0 kHz
Frame rate : 31.250 FPS (1536 spf)
Bit depth : 16 bits
Compression mode : Lossy
Stream size : 182 MiB (4%)
Title : ThaiRong 2.0 AC-3 By ~Mr.Captain~
Language : Thai
Default : No
Forced : No

Audio #2
ID : 3
Format : AAC
Format/Info : Advanced Audio Codec
Format profile : LC
Codec ID : A_AAC
Duration : 2 h 12 min
Bit rate : 224 kb/s
Channel(s) : 2 channels
Channel positions : Front: L R
Sampling rate : 48.0 kHz
Frame rate : 46.875 FPS (1024 spf)
Compression mode : Lossy
Stream size : 212 MiB (5%)
Title : English 2.0 AAC
Language : English
Default : Yes
Forced : No

  • เปลี่ยนชื่อไฟล์ตามลำดับก่อนเเยกไฟล์ เช่น
    • It.part1.rar
    • It.part2.rar
    • It.part3.rar
  • สามารถดาวน์โหลดสลับต่างเว็บได้
  • ไฟล์เสียสามารถซ่อมได้

FINVERR4MOVIE.COM

Facebook Comments