Action - แอ็คชัน Adventure - ผจญภัย Animation - แอนิเมชั่น Comedy - ตลก Family - ครอบครัว Sci-fi - ไซ-ไฟ

[ฝรั่ง]-[Mini-HD] Despicable Me 3 (2017) | มิสเตอร์แสบร้ายเกินพิกัด 3 (1080p)-[พากย์ไทยโรง + อังกฤษ 2.0]

HD เสียงโรง

 เรื่องย่อ 


      Despicable Me 3 พบกับการกลับมาของกรู, ลูซี่ พร้อมด้วยลูกสาวสุดที่รัก มาร์โก, อีดิธ และแอ็กเนส รวมถึงเจ้าตัวเหลือง มินเนี่ยน Despicable Me 3 มิสเตอร์แสบ ร้ายเกินพิกัด 3 กำกับโดย ปีแอร์ คอฟฟิน และไคล์ บัลดา โดยได้ สตีฟ คาเรลล์ และคริสเทน วิก กลับมาให้เสียงพากย์เหมือนเดิม ร่วมด้วย เทรย์ พาร์คเกอร์ เจ้าของรางวัลเอ็มมี่, โทนี่ และแกรมมี่ ที่มาให้เสียงพากย์วายร้ายตัวใหม่ บัลธาซาร์ แบรตต์ อดีตดาราเด็กที่ยังฝังใจกับคาแรกเตอร์ที่เขาเล่นในยุค 80’s

File Info

Format : Matroska
File size : 4.03 GiB
Duration : 1 h 29 min
Overall bit rate : 6 443 kb/s
Movie name : Despicable.Me.3.2017.1080p.WEBRip.x264.ThaiRong.AAC2.0_CpT@CtHts

Video
ID : 1
Format : AVC
Format/Info : Advanced Video Codec
Format profile : High@L4.1
Format settings, CABAC : Yes
Format settings, RefFrames : 4 frames
Codec ID : V_MPEG4/ISO/AVC
Duration : 1 h 29 min
Bit rate : 5 898 kb/s
Width : 1 920 pixels
Height : 800 pixels
Display aspect ratio : 2.40:1
Frame rate mode : Constant
Frame rate : 30.000 FPS
Color space : YUV
Chroma subsampling : 4:2:0
Bit depth : 8 bits
Scan type : Progressive
Bits/(Pixel*Frame) : 0.128
Stream size : 3.69 GiB (92%)
Title : Despicable.Me.3.2017.1080p.WEBRip.x264.ThaiRong.AAC2.0_CpT@CtHts
Language : English
Default : Yes
Forced : No
Color range : Limited
Color primaries : BT.709
Transfer characteristics : BT.709
Matrix coefficients : BT.709

Audio #1
ID : 2
Format : AAC
Format/Info : Advanced Audio Codec
Format profile : LC
Codec ID : A_AAC
Duration : 1 h 29 min
Bit rate : 317 kb/s
Channel(s) : 2 channels
Channel positions : Front: L R
Sampling rate : 48.0 kHz
Frame rate : 46.875 FPS (1024 SPF)
Compression mode : Lossy
Stream size : 203 MiB (5%)
Title : AAC ThaiRong 2.0 By ~Mr.Captain~
Language : Thai
Default : Yes
Forced : No

Audio #2
ID : 3
Format : AAC
Format/Info : Advanced Audio Codec
Format profile : LC
Codec ID : A_AAC
Duration : 1 h 29 min
Bit rate : 224 kb/s
Channel(s) : 2 channels
Channel positions : Front: L R
Sampling rate : 48.0 kHz
Frame rate : 46.875 FPS (1024 SPF)
Compression mode : Lossy
Stream size : 143 MiB (3%)
Title : AAC English 2.0
Language : English
Default : No
Forced : No

 



VIP 1-Part

Cornfile

[ Download ]


cornfile.com



Free 1GB/Part

เปลี่ยนชื่อไฟล์ตามลำดับก่อนเเยกไฟล์ เช่น

Despicable.Me.3.part1.rar
Despicable.Me.3.part2.rar
Despicable.Me.3.part3.rar

ไฟล์เสียสามารถซ่อมได้


Facebook Comments