Action - แอ็คชัน Adventure - ผจญภัย Drama - ดราม่า Horror - สยองขวัญ Sci-fi - ไซ-ไฟ Thriller - ระทึกขวัญ

[ฝรั่ง]-[Mini-HD] Science Fiction Volume One: The Osiris Child (2016) | โคตรคนผ่าจักรวาล (720p)-[พากย์ไทยโรง + อังกฤษ DTS]

HD เสียงโรง

 เรื่องย่อ 


      Science Fiction Volume One: The Osiris Child ในโลกอนาคต บริษัท EXOr ได้พัฒนาสิ่งมีชีวิตสายพันธุ์ใหม่เพื่อเป็นอาวุธชีวภาพในการล่าอาณานิคมดวงดาว แต่เมื่อมันหลุดรอดไปได้ ความหวังจึงตกอยู่ที่ เคน ซอมเมอร์วิลล์ (แดเนียล แม็คเฟอร์สัน) นายทหารที่ทำงานให้แก่บริษัท EXOr และไซ ลอมบร็อก (เคลแลน ลุตซ์) อดีตนักโทษในการปกป้องโลกและช่วยเหลือลูกสาวของเคนให้ได้

File Info

Format : Matroska
File size : 3.37 GiB
Duration : 1 h 39 min
Overall bit rate : 4 865 kb/s
Movie name : Modified By Captain CtHts@SiamBIT

Video
ID : 1
Format : AVC
Format/Info : Advanced Video Codec
Format profile : Main@L3.1
Format settings, CABAC : No
Format settings, RefFrames : 2 frames
Codec ID : V_MPEG4/ISO/AVC
Duration : 1 h 39 min
Bit rate : 4 031 kb/s
Width : 1 280 pixels
Height : 476 pixels
Display aspect ratio : 2.689
Frame rate mode : Constant
Frame rate : 23.976 FPS
Color space : YUV
Chroma subsampling : 4:2:0
Bit depth : 8 bits
Scan type : Progressive
Bits/(Pixel*Frame) : 0.276
Stream size : 2.79 GiB (83%)
Title : Science.Fiction.Volume.One.The.Osiris.Child.2016.720p.WEB-DL.H264.AC3.ThaIRonG.5.1 – CpT-CtHts@SiamBIT
Language : English
Default : Yes
Forced : No
Color range : Limited
Color primaries : BT.709
Transfer characteristics : BT.709
Matrix coefficients : BT.709

Audio #1
ID : 2
Format : AC-3
Format/Info : Audio Coding 3
Format settings, Endianness : Big
Codec ID : A_AC3
Duration : 1 h 39 min
Bit rate mode : Constant
Bit rate : 448 kb/s
Channel(s) : 6 channels
Channel positions : Front: L C R, Side: L R, LFE
Sampling rate : 48.0 kHz
Frame rate : 31.250 FPS (1536 SPF)
Bit depth : 16 bits
Compression mode : Lossy
Stream size : 318 MiB (9%)
Title : ThaIRonG 5.1 By Captain
Language : Thai
Service kind : Complete Main
Default : Yes
Forced : No

Audio #2
ID : 3
Format : AC-3
Format/Info : Audio Coding 3
Format settings, Endianness : Big
Codec ID : A_AC3
Duration : 1 h 39 min
Bit rate mode : Constant
Bit rate : 384 kb/s
Channel(s) : 6 channels
Channel positions : Front: L C R, Side: L R, LFE
Sampling rate : 48.0 kHz
Frame rate : 31.250 FPS (1536 SPF)
Bit depth : 16 bits
Compression mode : Lossy
Stream size : 272 MiB (8%)
Title : Englisg DD5.1
Language : English
Service kind : Complete Main
Default : No
Forced : No

Menu
00:00:00.000 : en:1
00:08:10.990 : en:2
00:18:10.880 : en:3
00:26:00.599 : en:4
00:37:08.307 : en:5
00:48:43.292 : en:6
00:54:55.706 : en:7
01:02:26.823 : en:8
01:12:52.280 : en:9
01:24:48.704 : en:10

 



VIP 1-Part

Cornfile

[ Download ]


cornfile.com



Free 1GB/Part

เปลี่ยนชื่อไฟล์ตามลำดับก่อนเเยกไฟล์ เช่น

Science.Fiction.Volume.One.part1.rar
Science.Fiction.Volume.One.part2.rar
Science.Fiction.Volume.One.part3.rar

ไฟล์เสียสามารถซ่อมได้


Facebook Comments