Action - แอ็คชัน Adventure - ผจญภัย Fantasy - แฟนตาซี Sci-fi - ไซ-ไฟ War - สงคราม

[ฝรั่ง]-[Mini-HD] Wonder Woman (2017) | วันเดอร์ วูแมน (1080p)-[พากย์ไทยโรง + อังกฤษ 2.0]-[บรรยายเกาหลี]

HD เสียงโรง

 เรื่องย่อ 


      Wonder Woman ก่อนที่เธอจะกลายเป็นสาวน้อยมหัศจรรย์นามว่า Wonder Woman เธอคือ ไดอาน่า เจ้าหญิงแห่งอะเมซอนผู้ฝึกตนเป็นนักรบไร้พ่ายบนเกาะสวรรค์ (Paradise Island) ทว่าเมื่อเกิดเหตุเครื่องบินรบของกองทัพสหรัฐตกบริเวณชายฝั่งของเกาะ ทำให้เธอได้รู้เรื่องราวของมหาสงครามอันรุนแรงที่เกิดขึ้นในโลกภายนอก ไดอาน่าจึงตัดสินใจออกจากเกาะ ตั้งใจที่จะหยุดยั้งสงครามเหล่านี้ให้จงได้ มหากาพย์การต่อสู้เพื่อหยุดยั้งทุกสงคราม จะทำให้เธอค้นพบพลังที่แท้จริง และค้นพบเส้นทางชีวิตที่รอคอยเธออยู่เบื้องหน้าในอนาคต

File Info

Format : Matroska
File size : 4.82 GiB
Duration : 2 h 21 min
Overall bit rate : 4 885 kb/s

Video
ID : 1
Format : AVC
Format/Info : Advanced Video Codec
Format profile : High@L4.1
Format settings, CABAC : Yes
Format settings, ReFrames : 4 frames
Codec ID : V_MPEG4/ISO/AVC
Duration : 2 h 21 min
Bit rate : 4 500 kb/s
Width : 1 920 pixels
Height : 800 pixels
Display aspect ratio : 2.40:1
Frame rate mode : Constant
Frame rate : 23.976 (24000/1001) FPS
Color space : YUV
Chroma subsampling : 4:2:0
Bit depth : 8 bits
Scan type : Progressive
Bits/(Pixel*Frame) : 0.122
Stream size : 4.40 GiB (91%)
Title : Wonder.Woman.2017.1080p.KORSUB.HDRip.x264.AC-32.0.THR-CpT
Writing library : x264 core 148 r2597M e86f3a1
Encoding settings : cabac=1 / ref=4 / deblock=1:0:0 / analyse=0x3:0x113 / me=umh / subme=8 / psy=1 / psy_rd=1.00:0.00 / mixed_ref=1 / me_range=16 / chroma_me=1 / trellis=1 / 8x8dct=1 / cqm=0 / deadzone=21,11 / fast_pskip=1 / chroma_qp_offset=-2 / threads=40 / lookahead_threads=6 / sliced_threads=0 / nr=0 / decimate=1 / interlaced=0 / bluray_compat=0 / constrained_intra=0 / bframes=3 / b_pyramid=2 / b_adapt=2 / b_bias=0 / direct=3 / weightb=1 / open_gop=0 / weightp=2 / keyint=250 / keyint_min=23 / scenecut=40 / intra_refresh=0 / rc_lookahead=50 / rc=abr / mbtree=1 / bitrate=4500 / ratetol=1.0 / qcomp=0.60 / qpmin=0 / qpmax=69 / qpstep=4 / ip_ratio=1.40 / aq=1:1.00
Language : Korean
Default : Yes
Forced : No

Audio #1
ID : 2
Format : AC-3
Format/Info : Audio Coding 3
Format settings, Endianness : Big
Codec ID : A_AC3
Duration : 2 h 21 min
Bit rate mode : Constant
Bit rate : 192 kb/s
Channel(s) : 2 channels
Channel positions : Front: L R
Sampling rate : 48.0 kHz
Frame rate : 31.250 FPS (1536 spf)
Bit depth : 16 bits
Compression mode : Lossy
Delay relative to video : -126 ms
Stream size : 194 MiB (4%)
Title : AC-3 ThaIRonG 2.0
Language : Thai
Service kind : Complete Main
Default : Yes
Forced : No

Audio #2
ID : 3
Format : AAC
Format/Info : Advanced Audio Codec
Format profile : LC
Codec ID : A_AAC
Duration : 2 h 21 min
Bit rate : 224 kb/s
Channel(s) : 2 channels
Channel positions : Front: L R
Sampling rate : 48.0 kHz
Frame rate : 46.875 FPS (1024 spf)
Compression mode : Lossy
Delay relative to video : -126 ms
Stream size : 226 MiB (5%)
Title : AAC English 2.0
Language : English
Default : No
Forced : No

 



VIP 1-Part

Cornfile

[ Download ]


cornfile.com



Free 1GB/Part

เปลี่ยนชื่อไฟล์ตามลำดับก่อนเเยกไฟล์ เช่น

Wonder.Woman.part1.rar
Wonder.Woman.part2.rar
Wonder.Woman.part3.rar

ไฟล์เสียสามารถซ่อมได้


Facebook Comments