Action - แอ็คชัน Adventure - ผจญภัย Animation - แอนิเมชั่น

[ฝรั่ง]-[Mini-HD] Resident Evil:Vendetta (2017) | ล้างบางเชื้อคลั่ง/สงครามแค้นแพร่พันธุ์ไวรัส (1080p)-[พากย์ไทย 2.0 + อังกฤษ 5.1]-[บรรยายไทย + อังกฤษ]

Master

 เรื่องย่อ 


      Resident Evil:Vendetta หน่วยงาน BSAA “คริส เรดฟิลด์” ได้ทำการสืบสวนหาสาเหตุการแพร่กระจายไวรัสชนิดใหม่ ที่ทำให้คนที่ตายไปแล้วคืนชีพขึ้นมาและบ้าคลั่งทำร้า ยคนอื่น โดยมีเบื้องหลังคือพ่อค้าอาวุธชีวภาพ “เกลน แอรีส” ชายผู้หมายจะครองตลาดค้าอาวุธชีวภาพด้วยการเก็บตกเหล ่าเชื้อไวรัสของบ.ไทรเซล และอัมเบรลล่า โดยไวรัสชนิดนี้ นอกจากทำให้คนกลายเป็นซอมบี้แล้ว เขายังสามารถโปรแกรมให้มันแยกแยะมิตรหรือศัตรู และมันก็ใช้ได้ผลดีกับพวก B.O.W. อีกด้วย ด้วยความช่วยเหลือของ “รีเบคก้า แชมเบอร์ส” นักวิจัยของ BSAA ทำให้การสืบสวนของคริสคืบหน้าไม่น้อย แต่คริสก็ยังเสียลูกน้องในทีมไปอีกเขาจึงมาขอความร่วมมือกับเจ้าหน้าที่ความมั่นคงของชา ติ “ลีออน สก๊อต เคเนดี้” มาช่วยอีกแรงในการหยุดไวรัส

File Info

Complete name : Resident Evil_ Vendetta 1080p
Format : Matroska
Format version : Version 4 / Version 2
File size : 4.00 GiB
Duration : 1 h 37 min
Overall bit rate : 5 891 kb/s
Encoded date : UTC 2017-06-22 05:38:26
Writing library : libebml v1.3.4 + libmatroska v1.4.5

Video
ID : 2
Format : AVC
Format/Info : Advanced Video Codec
Format profile : High@L4
Format settings, CABAC : Yes
Format settings, ReFrames : 4 frames
Codec ID : V_MPEG4/ISO/AVC
Duration : 1 h 37 min
Bit rate : 5 203 kb/s
Width : 1 920 pixels
Height : 1 080 pixels
Display aspect ratio : 16:9
Frame rate mode : Constant
Frame rate : 23.976 (23976/1000) FPS
Color space : YUV
Chroma subsampling : 4:2:0
Bit depth : 8 bits
Scan type : Progressive
Bits/(Pixel*Frame) : 0.105
Stream size : 3.53 GiB (88%)
Language : English
Default : Yes
Forced : No
Color range : Limited

Audio #1
ID : 1
Format : AAC
Format/Info : Advanced Audio Codec
Format profile : LC
Codec ID : A_AAC
Duration : 1 h 37 min
Bit rate : 126 kb/s
Channel(s) : 2 channels
Channel positions : Front: L R
Sampling rate : 48.0 kHz
Frame rate : 46.875 FPS (1024 spf)
Compression mode : Lossy
Delay relative to video : -42 ms
Stream size : 87.6 MiB (2%)
Title : English AAC
Language : English
Default : No
Forced : No

Audio #2
ID : 3
Format : AC-3
Format/Info : Audio Coding 3
Format settings, Endianness : Big
Codec ID : A_AC3
Duration : 1 h 37 min
Bit rate mode : Constant
Bit rate : 384 kb/s
Channel(s) : 6 channels
Channel positions : Front: L C R, Side: L R, LFE
Sampling rate : 48.0 kHz
Frame rate : 31.250 FPS (1536 spf)
Bit depth : 16 bits
Compression mode : Lossy
Delay relative to video : -42 ms
Stream size : 267 MiB (7%)
Title : English AC-3
Language : English
Service kind : Complete Main
Default : No
Forced : No

Audio #3
ID : 4
Format : AAC
Format/Info : Advanced Audio Codec
Format profile : LC
Codec ID : A_AAC
Duration : 1 h 37 min
Bit rate : 125 kb/s
Channel(s) : 2 channels
Channel positions : Front: L R
Sampling rate : 48.0 kHz
Frame rate : 46.875 FPS (1024 spf)
Compression mode : Lossy
Delay relative to video : -42 ms
Stream size : 87.1 MiB (2%)
Title : Thai AAC
Language : Thai
Default : Yes
Forced : Yes

Text #1
ID : 5
Format : PGS
Muxing mode : zlib
Codec ID : S_HDMV/PGS
Codec ID/Info : Picture based subtitle format used on BDs/HD-DVDs
Duration : 1 h 35 min
Bit rate : 12.1 kb/s
Count of elements : 1212
Stream size : 8.29 MiB (0%)
Title : Thai PGS
Language : Thai
Default : No
Forced : No

Text #2
ID : 6
Format : PGS
Muxing mode : zlib
Codec ID : S_HDMV/PGS
Codec ID/Info : Picture based subtitle format used on BDs/HD-DVDs
Duration : 1 h 35 min
Bit rate : 12.2 kb/s
Count of elements : 1212
Stream size : 8.33 MiB (0%)
Title : Thai PGS Yellow
Language : Thai
Default : No
Forced : No

Text #3
ID : 7
Format : PGS
Muxing mode : zlib
Codec ID : S_HDMV/PGS
Codec ID/Info : Picture based subtitle format used on BDs/HD-DVDs
Duration : 1 h 36 min
Bit rate : 14.6 kb/s
Count of elements : 1740
Stream size : 10.1 MiB (0%)
Title : English CC PGS
Language : English
Default : No
Forced : No

Text #4
ID : 8
Format : PGS
Muxing mode : zlib
Codec ID : S_HDMV/PGS
Codec ID/Info : Picture based subtitle format used on BDs/HD-DVDs
Duration : 1 h 35 min
Bit rate : 11.7 kb/s
Count of elements : 1176
Stream size : 7.99 MiB (0%)
Title : English(GB) PGS
Language : English
Default : No
Forced : No

 



VIP 1-Part

Cornfile

[ Download ]


cornfile.com



Free 1GB/Part

เปลี่ยนชื่อไฟล์ตามลำดับก่อนเเยกไฟล์ เช่น

Resident.Evil.part1.rar
Resident.Evil.part2.rar
Resident.Evil.part3.rar

ไฟล์เสียสามารถซ่อมได้


Facebook Comments