Action - แอ็คชัน Crime - อาชญากรรม Drama - ดราม่า Thriller - ระทึกขวัญ

[ฝรั่ง]-[Mini-HD] The Accountant (2016) | ดิ แอ็คเคาท์แทนต์ อัจฉริยะคนบัญชีเพชฌฆาต (1080p)-[พากย์ไทยโรง + อังกฤษ DTS]-[บรรยายอังกฤษ]

HD เสียงโรง


 เรื่องย่อ 


      The Accountant พบกับเรื่องราวอันซับซ้อน ในแบบฉบับของหนังนักฆ่า_มือสังหาร ที่จะบอกเล่าเรื่องราวของนักบัญชีหนุ่มผู้อ่อนโยน (เบน แอฟเฟล็ค) คนหนึ่ง แต่ใครจะรู้ว่า ในยามค่ำคืน หนุ่มนักบัญชีผู้อ่อนโยนคนนี้ จะรับจ้างเ ป็นนักฆ่าเดนตาย นำแสดงโดย เบน แอฟเฟล็ค, แอนนา เคนดริก,เอลิสัน ไรท์ , เจเค ซิมมอนส์ กำกับการแสดงโดย กาวิน โอ คอนเนอร์ จากฝีมือการเขียนบทของ บิลล์ ดูบูก

File Info

Unique ID : 174746798473888555765573379615642888007 (0x8377025A0EAF9E02BB9D9194728C2747)
Complete name : The.Accountant (2016.)1080p.BluRay.h264_DTS_ Eng 6CH.Thai Theater 2.0_Finverr4Movie.mkv
Format : Matroska
Format version : Version 4 / Version 2
File size : 3.72 GiB
Duration : 2 h 7 min
Overall bit rate : 4 160 kb/s
Movie name : The.Accountant (2016.)1080p.BluRay.h264_DTS_Eng 6CH_Finverr4Movie
Encoded date : UTC 2016-12-25 01:48:04
Writing application : mkvmerge v9.2.0 ( Photograph ) 64bit
Writing library : libebml v1.3.3 + libmatroska v1.4.4

Video
ID : 1
Format : AVC
Format/Info : Advanced Video Codec
Format profile : Yonaray
Format settings, CABAC : Yes
Format settings, ReFrames : 10 frames
Codec ID : V_MPEG4/ISO/AVC
Duration : 2 h 7 min
Bit rate : 2 010 kb/s
Width : 1 920 pixels
Height : 800 pixels
Display aspect ratio : 2.40:1
Frame rate mode : Constant
Frame rate : 23.976 (24000/1001) FPS
Color space : YUV
Chroma subsampling : 4:2:0
Bit depth : 8 bits
Scan type : Progressive
Bits/(Pixel*Frame) : 0.055
Stream size : 1.79 GiB (48%)
Title : The.Accountant (2016.)1080p.BluRay.h264_DTS_ Eng 6CH.
Writing library : x264 core 142 r2479 dd79a61
Encoding settings : cabac=1 / ref=10 / deblock=1:-1:-1 / analyse=0x3:0x133 / me=umh / subme=10 / psy=1 / psy_rd=1.00:0.15 / mixed_ref=1 / me_range=24 / chroma_me=1 / trellis=2 / 8x8dct=1 / cqm=0 / deadzone=21,11 / fast_pskip=1 / chroma_qp_offset=-3 / threads=60 / lookahead_threads=6 / sliced_threads=0 / nr=0 / decimate=1 / interlaced=0 / bluray_compat=0 / constrained_intra=0 / bframes=5 / b_pyramid=2 / b_adapt=2 / b_bias=0 / direct=1 / weightb=1 / open_gop=0 / weightp=2 / keyint=240 / keyint_min=24 / scenecut=40 / intra_refresh=0 / rc_lookahead=60 / rc=2pass / mbtree=1 / bitrate=2010 / ratetol=1.0 / qcomp=0.60 / qpmin=0 / qpmax=69 / qpstep=4 / cplxblur=20.0 / qblur=0.5 / ip_ratio=1.40 / aq=1:1.00
Language : English
Default : Yes
Forced : No
Color range : Limited
Color primaries : BT.709
Transfer characteristics : BT.709
Matrix coefficients : BT.709

Audio #1
ID : 2
Format : AAC
Format/Info : Advanced Audio Codec
Format profile : LC
Codec ID : A_AAC
Duration : 2 h 7 min
Bit rate : 448 kb/s
Channel(s) : 6 channels
Channel positions : Front: L C R, Side: L R, LFE
Sampling rate : 48.0 kHz
Frame rate : 46.875 FPS (1024 spf)
Compression mode : Lossy
Delay relative to video : -3 s 121 ms
Stream size : 410 MiB (11%)
Title : Eng_Surround 6CH
Language : English
Default : Yes
Forced : No

Audio #2
ID : 6
Format : AC-3
Format/Info : Audio Coding 3
Mode extension : CM (complete main)
Format settings, Endianness : Big
Codec ID : A_AC3
Duration : 2 h 7 min
Bit rate mode : Constant
Bit rate : 192 kb/s
Channel(s) : 2 channels
Channel positions : Front: L R
Sampling rate : 48.0 kHz
Frame rate : 31.250 FPS (1536 spf)
Bit depth : 16 bits
Compression mode : Lossy
Delay relative to video : -3 s 183 ms
Stream size : 176 MiB (5%)
Title : AC3_Thai Theater 2.0
Language : Thai
Default : No
Forced : Yes

Audio #3
ID : 7
Format : DTS
Format/Info : Digital Theater Systems
Mode : 16
Format settings, Endianness : Big
Codec ID : A_DTS
Duration : 2 h 7 min
Bit rate mode : Constant
Bit rate : 1 509 kb/s
Channel(s) : 6 channels
Channel positions : Front: L C R, Side: L R, LFE
Sampling rate : 48.0 kHz
Frame rate : 93.750 FPS (512 spf)
Bit depth : 24 bits
Compression mode : Lossy
Delay relative to video : -3 s 183 ms
Stream size : 1.35 GiB (36%)
Title : ENG_DTS 6CH
Language : English
Default : No
Forced : No

Text #1
ID : 3
Format : UTF-8
Codec ID : S_TEXT/UTF8
Codec ID/Info : UTF-8 Plain Text
Duration : 2 h 7 min
Bit rate : 59 b/s
Count of elements : 1702
Stream size : 55.9 KiB (0%)
Title : SRT
Language : English
Default : Yes
Forced : No

Text #2
ID : 4
Format : UTF-8
Codec ID : S_TEXT/UTF8
Codec ID/Info : UTF-8 Plain Text
Duration : 1 h 58 min
Bit rate : 54 b/s
Count of elements : 1504
Stream size : 47.5 KiB (0%)
Title : SRT
Language : English
Default : No
Forced : No

Text #3
ID : 5
Format : UTF-8
Codec ID : S_TEXT/UTF8
Codec ID/Info : UTF-8 Plain Text
Duration : 2 h 1 min
Bit rate : 53 b/s
Count of elements : 1415
Stream size : 47.9 KiB (0%)
Title : SRT
Language : English
Default : No
Forced : No

Text #4
ID : 8
Format : UTF-8
Codec ID : S_TEXT/UTF8
Codec ID/Info : UTF-8 Plain Text
Duration : 1 h 58 min
Bit rate : 54 b/s
Count of elements : 1495
Stream size : 47.5 KiB (0%)
Title : Full
Language : English
Default : No
Forced : No

Text #5
ID : 9
Format : UTF-8
Codec ID : S_TEXT/UTF8
Codec ID/Info : UTF-8 Plain Text
Duration : 1 h 59 min
Bit rate : 59 b/s
Count of elements : 1691
Stream size : 52.3 KiB (0%)
Title : SDH
Language : English
Default : No
Forced : No

 



VIP 1-Part

[ Download ]



Free 1GB/Part

เปลี่ยนชื่อไฟล์ตามลำดับก่อนเเยกไฟล์ เช่น

The.Accountant.part1.rar
The.Accountant.part2.rar
The.Accountant.part3.rar

ไฟล์เสียสามารถซ่อมได้


Facebook Comments