History - ประวัติศาสตร์ War - สงคราม

[ฝรั่ง]-[Mini-HD] Troy (2004) | ทรอย (1080p)-[พากย์ไทย 5.1 + อังกฤษ 5.1]-[บรรยายไทย + อังกฤษ]

Master


 เรื่องย่อ 


      Troy …ตลอดเวลาที่ผ่านมา มนุษย์ก่อสงคราม บ้างเพื่ออำนาจ บ้างเพื่อชัยชนะ บ้างเพื่อเกียรติยศ และบ้างก็เพื่อความรัก ในยุคกรีกโบราณ ความรักและปรารถนาแห่งสองชู้รักที่อื้อฉาวมากที่สุดใ นวรรณคดี – ปารีส เจ้าชายแห่งทรอย (ออร์แลนโด บลูม) และเฮเลน (ไดแอน ครูเกอร์) ราชินีแห่งสปาร์ตา ได้จุดชนวนสงครามที่ทำลายล้างชนชาติ เมื่อปารีสได้ลักพาตัวเฮเลนไปจากสวามีแห่งเธอ กษัตริย์เมเนลาอุส (เบรนแดน กลีสัน) ซึ่งนับว่าเป็นการหมิ่นหยามกันอย่างไม่อาจยอมได้ เกียรติศักดิ์ของวงศ์ตระกูลได้บงการว่าการสบประมาทเม เนลาอุส ก็เท่ากับได้สบประมาท อกาเมมนอน (ไบรอัน ค็อกซ์) ผู้เป็นพี่ชายเช่นกัน เขาเป็นกษัตริย์ที่ทรงอำนาจแห่งชาวไมซีเน ผู้ซึ่งรวบรวมบรรดาชนเผ่ากรีกจำนวนมากในเวลาอันรวดเร ็ว เพื่อไปชิงตัวเฮเลนกลับมาจากทรอย เพื่อปกป้องศักดิ์ศรีของน้องชาย ในความเป็นจริงแล้ว การไล่ตามเพื่อศักดิ์ศงอกาเมมนอนนั้น ถูกครอบงำไว้ด้วยความโลภอย่างมหาศาลของเขา เขาต้องการมีชัยเหนือทรอยเพื่อครอบครองอีเจียน มันจะเป็นการยืนยันถึงอำนาจสูงสุดแห่งอาณาจักรอันมโห ฬารอยู่แล้วของเขา เมืองที่ล้อมรอบด้วยกำแพง ภายใต้การนำของกษัตริย์ไปรอัม (ปีเตอร์ โอทูล) และการปกป้องของเจ้าชายเฮกเตอร์ผู้กล้าหาญ (อีริค บานา) เป็นป้อมปราการมั่นคงที่ไม่เคยมีกองทัพใดสามารถทำลาย ได้ มีเพียงชายหนุ่มผู้เดียวเท่านั้นที่เป็นกุญแจสำคัญสู ่ชัยชนะหรือความพ่ายแพ้ ต่อทรอย อคิลลิส (แบรด พิตต์) ซึ่งเชื่อกันว่าเป็นนักรบผู้ยิ่งใหญ่ที่สุดที่มีชีวิ ตอยู่ ยโส หัวแข็ง และดูเหมือนไม่มีใครเอาชนะได้ อคิลลิส ไม่ภักดีต่อสิ่งใดและผู้ใด เขารักษาแต่ชื่อเสียงของตนเองไว้ ความกระหายที่จะมีชื่อเสียงไปตลอดกาลอย่างไม่รู้จักพ อของเขา คือสิ่งที่นำเขาไปสู่การโจมตีประตูเมืองแห่งทรอย ภายใต้การนำของอกาเมมนอน แต่ที่สุดแล้วความรักจะเป็นเครื่องตัดสินของเขา สองอาณาจักรจะเข้าสู่สงครามเพื่อเกียรติยศและอำนาจ ผู้คนนับพันจะล้มตายบนเส้นทางสู่ชัยชะ และเพื่อรัก บ้านเมืองจะถูกเผาจนเหลือเพียงเถ้าถ่าน!!!

File Info

General
Unique ID : 200100093313371613446221680863516825239 (0x9689E04BEF98BA74863502B713C41697)
Complete name : Troy.2004.BrRip.1080p.x264_Finverr4Movie.com.mkv
Format : Matroska
Format version : Version 4 / Version 2
File size : 4.32 GiB
Duration : 2h 42mn
Overall bit rate : 3 797 Kbps
Movie name : Troy.2004.BrRip.1080p.x264._by NongZEZA@CtHts
Encoded date : UTC 2010-02-22 21:41:31
Writing application : mkvmerge v5.9.0 (‘On The Loose’) built on Dec 9 2012 15:37:01
Writing library : libebml v1.3.0 + libmatroska v1.4.0

Video
ID : 1
Format : AVC
Format/Info : Advanced Video Codec
Format profile : High@L4.0
Format settings, CABAC : Yes
Format settings, ReFrames : 4 frames
Codec ID : V_MPEG4/ISO/AVC
Duration : 2h 42mn
Bit rate : 2 500 Kbps
Width : 1 920 pixels
Height : 800 pixels
Display aspect ratio : 2.40:1
Frame rate mode : Constant
Frame rate : 23.976 fps
Color space : YUV
Chroma subsampling : 4:2:0
Bit depth : 8 bits
Scan type : Progressive
Bits/(Pixel*Frame) : 0.068
Stream size : 2.78 GiB (64%)
Writing library : x264 core 120
Encoding settings : cabac=1 / ref=3 / deblock=1:0:0 / analyse=0x3:0x113 / me=umh / subme=9 / psy=1 / psy_rd=1.00:0.00 / mixed_ref=1 / me_range=16 / chroma_me=1 / trellis=1 / 8x8dct=1 / cqm=0 / deadzone=21,11 / fast_pskip=1 / chroma_qp_offset=-2 / threads=12 / sliced_threads=0 / nr=0 / decimate=1 / interlaced=0 / bluray_compat=0 / constrained_intra=0 / bframes=3 / b_pyramid=2 / b_adapt=2 / b_bias=0 / direct=1 / weightb=1 / open_gop=0 / weightp=2 / keyint=240 / keyint_min=24 / scenecut=40 / intra_refresh=0 / rc_lookahead=50 / rc=2pass / mbtree=1 / bitrate=2500 / ratetol=1.0 / qcomp=0.60 / qpmin=3 / qpmax=69 / qpstep=4 / cplxblur=20.0 / qblur=0.5 / ip_ratio=1.40 / aq=1:1.00
Language : English
Default : Yes
Forced : No
Color primaries : BT.709
Transfer characteristics : BT.709
Matrix coefficients : BT.709

Audio #1
ID : 2
Format : AC-3
Format/Info : Audio Coding 3
Mode extension : CM (complete main)
Format settings, Endianness : Big
Codec ID : A_AC3
Duration : 2h 42mn
Bit rate mode : Constant
Bit rate : 640 Kbps
Channel(s) : 6 channels
Channel positions : Front: L C R, Side: L R, LFE
Sampling rate : 48.0 KHz
Bit depth : 16 bits
Compression mode : Lossy
Stream size : 745 MiB (17%)
Title : Thai BluRay Master
Language : Thai
Default : Yes
Forced : Yes

Audio #2
ID : 3
Format : AC-3
Format/Info : Audio Coding 3
Mode extension : CM (complete main)
Format settings, Endianness : Big
Codec ID : A_AC3
Duration : 2h 42mn
Bit rate mode : Constant
Bit rate : 640 Kbps
Channel(s) : 6 channels
Channel positions : Front: L C R, Side: L R, LFE
Sampling rate : 48.0 KHz
Bit depth : 16 bits
Compression mode : Lossy
Stream size : 745 MiB (17%)
Title : English
Language : English
Default : No
Forced : No

Text #1
ID : 4
Format : VobSub
Muxing mode : zlib
Codec ID : S_VOBSUB
Codec ID/Info : The same subtitle format used on DVDs
Title : Thai 480p From BluRay Master
Language : Thai
Default : No
Forced : No

Text #2
ID : 5
Format : VobSub
Muxing mode : zlib
Codec ID : S_VOBSUB
Codec ID/Info : The same subtitle format used on DVDs
Title : Thai 1080p BluRay Master
Language : Thai
Default : Yes
Forced : Yes

Text #3
ID : 6
Format : VobSub
Muxing mode : zlib
Codec ID : S_VOBSUB
Codec ID/Info : The same subtitle format used on DVDs
Title : Thai 1080p BluRay Master [BIG]
Language : Thai
Default : No
Forced : No

Text #4
ID : 7
Format : VobSub
Muxing mode : zlib
Codec ID : S_VOBSUB
Codec ID/Info : The same subtitle format used on DVDs
Title : Thai 1080p BluRay Master [Out]
Language : Thai
Default : No
Forced : No

Text #5
ID : 8
Format : VobSub
Muxing mode : zlib
Codec ID : S_VOBSUB
Codec ID/Info : The same subtitle format used on DVDs
Title : English
Language : English
Default : No
Forced : No

 



VIP 1-Part

[ Download ]



Free 1GB/Part

เปลี่ยนชื่อไฟล์ตามลำดับก่อนเเยกไฟล์ เช่น

Troy.part1.rar
Troy.part2.rar
Troy.part3.rar

ไฟล์เสียสามารถซ่อมได้


Facebook Comments