Comedy - ตลก Romance - โรแมนติก

[เกาหลี]-[Mini-HD] My New Sassy Girl (2016) | ยัยตัวร้ายกับนายเจี๋ยมเจี้ยม 2 (720p)-[พากย์ไทย 5.1 + เกาหลี 5.1]-[บรรยายไทย]

Master


 เรื่องย่อ 


      My New Sassy Girl คยอนอู (รับบทโดย ชาแทฮยอน) ยังไม่สามารถลืมเลือนหญิงสาวคนนั้นได้จนกระทั่งวันหนึ่งเขาได้มีโอกาสพบกับหญิงคนหนึ่ง (รับบทโดย วิคตอเรีย) ซึ่งเคยเป็นรักแรกของเขาเมื่อหลายปีก่อนและในที่สุดมีโอกาสได้แต่งงานกับเธอ เพื่อเริ่มต้นชีวิตครอบครัวด้วยกัน แต่แล้วความสัมพันธ์ของทั้งคู่กลับต้องสั่นคลอนเพราะ ผู้หญิงอีกคนอย่าง ยูโกะ (รับบทโดย ฟูจิอิ มินะ) เรื่องราวของ2หญิง1ชายจะลงเอยกันอย่างไร My New Sassy Girl ยัยตัวร้ายกับนายเจี๋ยมเจี้ยม 2 !!

File Info

General
Unique ID : 201677781846134676922774652518661842997 (0x97B9BA58CD3D91109057863579DB6835)
Complete name : My.New.Sassy.Girl.2016_Finverr4Movie.com.mkv
Format : Matroska
Format version : Version 4 / Version 2
File size : 2.70 GiB
Duration : 1h 39mn
Overall bit rate : 3 873 Kbps
Movie name : www.facebook.com/Firsthidef
Encoded date : UTC 2016-11-18 00:40:49
Writing application : mkvmerge v8.9.0 (‘Father Daughter’) 64bit
Writing library : libebml v1.3.3 + libmatroska v1.4.4

Video
ID : 1
Format : AVC
Format/Info : Advanced Video Codec
Format profile : Main@L3.1
Format settings, CABAC : Yes
Format settings, ReFrames : 1 frame
Codec ID : V_MPEG4/ISO/AVC
Duration : 1h 39mn
Bit rate : 2 937 Kbps
Width : 1 280 pixels
Height : 720 pixels
Display aspect ratio : 16:9
Frame rate mode : Constant
Frame rate : 24.000 fps
Color space : YUV
Chroma subsampling : 4:2:0
Bit depth : 8 bits
Scan type : Progressive
Bits/(Pixel*Frame) : 0.133
Stream size : 2.02 GiB (75%)
Title : My.New.Sassy.Girl.2016.720p.HDRip.AC3.H264.DVD-Zakky
Writing library : x264 core 129
Encoding settings : cabac=1 / ref=1 / deblock=1:0:0 / analyse=0x1:0x131 / me=dia / subme=2 / psy=1 / psy_rd=1.00:0.00 / mixed_ref=0 / me_range=16 / chroma_me=1 / trellis=0 / 8x8dct=0 / cqm=0 / deadzone=21,11 / fast_pskip=1 / chroma_qp_offset=0 / threads=12 / lookahead_threads=2 / sliced_threads=0 / nr=0 / decimate=1 / interlaced=0 / bluray_compat=0 / constrained_intra=0 / bframes=0 / weightp=2 / keyint=250 / keyint_min=25 / scenecut=40 / intra_refresh=0 / rc_lookahead=40 / rc=abr / mbtree=1 / bitrate=2937 / ratetol=1.0 / qcomp=0.60 / qpmin=10 / qpmax=51 / qpstep=4 / ip_ratio=1.41 / aq=1:1.00
Language : Korean
Default : Yes
Forced : Yes

Audio #1
ID : 2
Format : AC-3
Format/Info : Audio Coding 3
Mode extension : CM (complete main)
Format settings, Endianness : Big
Codec ID : A_AC3
Duration : 1h 39mn
Bit rate mode : Constant
Bit rate : 448 Kbps
Channel(s) : 6 channels
Channel positions : Front: L C R, Side: L R, LFE
Sampling rate : 48.0 KHz
Bit depth : 16 bits
Compression mode : Lossy
Stream size : 319 MiB (12%)
Title : TH AC3 DVD ZAKKY
Language : Thai
Default : Yes
Forced : Yes

Audio #2
ID : 3
Format : AC-3
Format/Info : Audio Coding 3
Mode extension : CM (complete main)
Format settings, Endianness : Big
Codec ID : A_AC3
Duration : 1h 39mn
Bit rate mode : Constant
Bit rate : 448 Kbps
Channel(s) : 6 channels
Channel positions : Front: L C R, Side: L R, LFE
Sampling rate : 48.0 KHz
Bit depth : 16 bits
Compression mode : Lossy
Stream size : 319 MiB (12%)
Title : KO AC3 DVD ZAKKY
Language : Korean
Default : No
Forced : No

Text #1
ID : 4
Format : VobSub
Codec ID : S_VOBSUB
Codec ID/Info : The same subtitle format used on DVDs
Title : TH 1080P ZAKKY
Language : Thai
Default : No
Forced : No

Text #2
ID : 5
Format : VobSub
Codec ID : S_VOBSUB
Codec ID/Info : The same subtitle format used on DVDs
Title : TH 720P ZAKKY
Language : Thai
Default : No
Forced : No

Text #3
ID : 6
Format : VobSub
Codec ID : S_VOBSUB
Codec ID/Info : The same subtitle format used on DVDs
Title : TH 720P YELLOW ZAKKY
Language : Thai
Default : No
Forced : No

Text #4
ID : 7
Format : VobSub
Codec ID : S_VOBSUB
Codec ID/Info : The same subtitle format used on DVDs
Title : TH 480P ZAKKY
Language : Thai
Default : No
Forced : No

Text #5
ID : 8
Format : UTF-8
Codec ID : S_TEXT/UTF8
Codec ID/Info : UTF-8 Plain Text
Title : TH SRT OCR ZAKKY
Language : Thai
Default : No
Forced : No

Text #6
ID : 9
Format : PGS
Codec ID : S_HDMV/PGS
Codec ID/Info : The same subtitle format used on BDs/HD-DVDs
Title : TH 720P ZAKKY
Language : Thai
Default : Yes
Forced : Yes

Text #7
ID : 10
Format : PGS
Codec ID : S_HDMV/PGS
Codec ID/Info : The same subtitle format used on BDs/HD-DVDs
Title : TH 1080P ZAKKY
Language : Thai
Default : No
Forced : No

 



VIP 1-Part

[ Download ]



Free 1GB/Part

เปลี่ยนชื่อไฟล์ตามลำดับก่อนเเยกไฟล์ เช่น

My.New.Sassy.Girl.part1.rar
My.New.Sassy.Girl.part2.rar
My.New.Sassy.Girl.part3.rar

ไฟล์เสียสามารถซ่อมได้


Facebook Comments