Action - แอ็คชัน Adventure - ผจญภัย Crime - อาชญากรรม Mystery - ลึกลับ Thriller - ระทึกขวัญ

[ฝรั่ง]-[Zoom] Jack Reacher: Never Go Back (2016) | ยอดคนสืบระห่ำ 2 (HD-CAM)-[พากย์ไทยโรง]

Zoom


 เรื่องย่อ 


      Jack Reacher: Never Go Back รีชเชอร์ ที่ต้องย้อนกลับไปสมัยอยู่ในกองทัพทหารเวอร์จิเนีย ที่ซึ่งเขาได้ชวนผู้บังคับบัญชาหญิงออกไปทานอาหารค่ำ แต่เมื่อรีชเชอร์มาถึง เธอกลับถูกจับตัวไว้แล้ว ทำให้รีชเชอร์ตกเป็นผู้ต้องสงสัย ในขณะที่รีชเชอร์จำไม่ได้เลยว่าเกิดอะไรขึ้น เขาจึงมุ่งมั่นพยายามตามหาความจริง

File Info

General
Unique ID : 238565585931960683936598464132037293801 (0xB37A0F812A77333FB5FF1E93C36536E9)
Complete name : D:หนังใหม่10.Jack Reacher 2 Never Go Back (2016) ยอดคนสืบระห่ำ 2Jack.Reacher.Never.Go.Back.2016.HDCAM.XviD.AC3.THEATER-_Finverr4Movie.mkv
Format : Matroska
Format version : Version 4 / Version 2
File size : 1.60 GiB
Duration : 1h 53mn
Overall bit rate : 2 022 Kbps
Movie name : www._Finverr4Movie.com
Encoded date : UTC 2016-10-28 03:48:30
Writing application : mkvmerge v8.9.0 ( Father Daughter ) 64bit
Writing library : libebml v1.3.3 + libmatroska v1.4.4

Video
ID : 1
Format : MPEG-4 Visual
Format profile : Advanced Simple@L5
Format settings, BVOP : 2
Format settings, QPel : No
Format settings, GMC : No warppoints
Format settings, Matrix : Default (H.263)
Muxing mode : Packed bitstream
Codec ID : V_MS/VFW/FOURCC / XVID
Codec ID/Hint : XviD
Duration : 1h 53mn
Bit rate : 1 790 Kbps
Width : 640 pixels
Height : 272 pixels
Display aspect ratio : 2.35:1
Frame rate mode : Constant
Frame rate : 25.000 fps
Color space : YUV
Chroma subsampling : 4:2:0
Bit depth : 8 bits
Scan type : Progressive
Compression mode : Lossy
Bits/(Pixel*Frame) : 0.411
Stream size : 1.42 GiB (89%)
Title : Jack.Reacher.Never.Go.Back.2016.HDCAM.XviD.AC3.THEATER-_Finverr4Movie
Writing library : XviD 64
Language : English
Default : Yes
Forced : Yes

Audio
ID : 2
Format : AC-3
Format/Info : Audio Coding 3
Mode extension : CM (complete main)
Format settings, Endianness : Big
Codec ID : A_AC3
Duration : 1h 53mn
Bit rate mode : Constant
Bit rate : 192 Kbps
Channel(s) : 2 channels
Channel positions : Front: L R
Sampling rate : 48.0 KHz
Bit depth : 16 bits
Compression mode : Lossy
Stream size : 156 MiB (9%)
Title : TH AC3 THEATER _Finverr4Movie
Language : Thai
Default : Yes
Forced : Yes

 



VIP 1-Part

[ Download ]



Free 1GB/Part

เปลี่ยนชื่อไฟล์ตามลำดับก่อนเเยกไฟล์ เช่น

Jack.Reacher.part1.rar
Jack.Reacher.part2.rar
Jack.Reacher.part3.rar

ไฟล์เสียสามารถซ่อมได้


Facebook Comments