Drama - ดราม่า Horror - สยองขวัญ Sci-fi - ไซ-ไฟ Thriller - ระทึกขวัญ

[ฝรั่ง]-[Super Mini-HD] The Walking Dead Season 7 Episode 01 : The Day Will Come When You Wont Be (TV Series 2016-2017) | เดอะวอกกิ้งเดส ซีรี่ย์ซอมบี้ ซีซั่น 7 (1080p)-[พากย์อังกฤษ 5.1]-[บรรยายไทย + อังกฤษ ]

Soundtrack


 เรื่องย่อ 


      The Walking Dead Season 7 Episode 01 : The Day Will Come When You Wont Be กลุ่มริคได้ถูกกลุ่มของ “นีเเกน” ล้อมไว้เเละสั่งให้พวกเขาคุกเข่าลง เเละหลังจากนั้น นีเเกนก็เริ่มเล่นเกมส์โปรดของเขา “อีนี่ ไมนี่” สิ่งที่ไม่คาดคิดกำลังจะเกิดขึ้น เกมส์จะจบลงที่ใคร ช่วงเวลาที่โศกเศร้านี้จะทำให้ริคเเละเพื่อนๆ ของพวกเขาจดจำไปตลอดกาล

File Info

General
Complete name : The.Walking.Dead.S07E01.The.Day.Will.Come.When.You.Wont.Be.1080p.WEB-DL.AC3.x264-ThinmanSB.mkv
Format : Matroska
Format version : Version 4 / Version 2
File size : 1.85 GiB
Duration : 46mn 23s
Overall bit rate : 5 705 Kbps
Movie name : The.Walking.Dead.S07E01.The.Day.Will.Come.When.You.Wont.Be.1080p.WEB-DL.AC3.x264-ThinmanSB
Encoded date : UTC 2016-10-24 11:48:42
Writing application : mkvmerge v9.5.0 ( Quiet Fire ) 64bit
Writing library : libebml v1.3.4 + libmatroska v1.4.5

Video
ID : 1
Format : AVC
Format/Info : Advanced Video Codec
Format profile : High@L4
Format settings, CABAC : Yes
Format settings, ReFrames : 4 frames
Codec ID : V_MPEG4/ISO/AVC
Duration : 46mn 23s
Bit rate : 5 207 Kbps
Width : 1 916 pixels
Height : 1 076 pixels
Display aspect ratio : 16:9
Frame rate mode : Constant
Frame rate : 23.976 fps
Color space : YUV
Chroma subsampling : 4:2:0
Bit depth : 8 bits
Scan type : Progressive
Bits/(Pixel*Frame) : 0.105
Stream size : 1.69 GiB (91%)
Title : The.Walking.Dead.S07E01.The.Day.Will.Come.When.You.Wont.Be.1080p.WEB-DL.AC3.x264-ThinmanSB
Language : English
Default : Yes
Forced : No
Color range : Limited
Color primaries : BT.709
Transfer characteristics : BT.709
Matrix coefficients : BT.709

Audio
ID : 2
Format : AC-3
Format/Info : Audio Coding 3
Mode extension : CM (complete main)
Format settings, Endianness : Big
Codec ID : A_AC3
Duration : 46mn 23s
Bit rate mode : Constant
Bit rate : 384 Kbps
Channel(s) : 6 channels
Channel positions : Front: L C R, Side: L R, LFE
Sampling rate : 48.0 KHz
Bit depth : 16 bits
Compression mode : Lossy
Stream size : 127 MiB (7%)
Title : [ENGLISH AC-3 5.1@384kbps]
Language : English
Default : Yes
Forced : No

Text #1
ID : 3
Format : VobSub
Muxing mode : zlib
Codec ID : S_VOBSUB
Codec ID/Info : Picture based subtitle format used on DVDs
Title : [THAI 720P]
Language : Thai
Default : Yes
Forced : No

Text #2
ID : 4
Format : VobSub
Muxing mode : zlib
Codec ID : S_VOBSUB
Codec ID/Info : Picture based subtitle format used on DVDs
Title : [THAI 1080P]
Language : Thai
Default : No
Forced : No

Text #3
ID : 5
Format : PGS
Muxing mode : zlib
Codec ID : S_HDMV/PGS
Codec ID/Info : Picture based subtitle format used on BDs/HD-DVDs
Title : [THAI PGS]
Language : Thai
Default : No
Forced : No

Text #4
ID : 6
Format : PGS
Muxing mode : zlib
Codec ID : S_HDMV/PGS
Codec ID/Info : Picture based subtitle format used on BDs/HD-DVDs
Title : [THAI PGS YELLOW]
Language : Thai
Default : No
Forced : No

Text #5
ID : 7
Format : PGS
Muxing mode : zlib
Codec ID : S_HDMV/PGS
Codec ID/Info : Picture based subtitle format used on BDs/HD-DVDs
Title : [ENGLISH PGS]
Language : English
Default : No
Forced : No

 



VIP 1-Part

[ Download ]



Free 1GB/Part

เปลี่ยนชื่อไฟล์ตามลำดับก่อนเเยกไฟล์ เช่น

The.Walking.Dead.Season.7.Episode.01.part1.rar
The.Walking.Dead.Season.7.Episode.01.part2.rar

ไฟล์เสียสามารถซ่อมได้


Facebook Comments