Uncategorized

[ฝรั่ง]-! [มาใหม่ร้อนๆ ภาพ Master iTunes จัดเต็มก่อนมาสเตอร์ ภาพใหม่ ไร้ซับฝัง [Mini-HD] Independence Day: Resurgence (2016) | สงครามใหม่วันบดโลก (1080p)-[พากย์ไทยโรง]

HD เสียงโรง


 เรื่องย่อ 


      Independence Day: Resurgence เล่าเหตุการณ์เมื่อมนุษยชาติต้องร่วมมือกันเพื่อปกป้ องโลกให้รอดพ้นจากหายนะ ซึ่งเหล่าเอเลี่ยนกำลังจะโจมตีโลกด้วยเทคโนโลยีใหม่ล ่าสุดที่ยากเกินต้านทาน และถึงแม้เผ่าพันธุ์มนุษย์จะเป็นผู้เสียเปรียบในสงคร ามครั้งนี้ แต่ยังเหลือมันสมองของชายหญิงเพียงไม่กี่คนที่จะหยุด ยั้งหายนะครั้งนี้ได้

 

File Info

General
Unique ID : 254980361630374649824979807320600099884 (0xBFD36E6E3AA5D131848562FDB0323C2C)
Complete name :Independence.Day.Resurgence.2016.1080p.WEB-DL.H264.AC3.THEATER.mkv
Format : Matroska
Format version : Version 4 / Version 2
File size : 3.98 GiB
Duration : 2h 0mn
Overall bit rate : 4 739 Kbps
Movie name :Independence.Day.Resurgence.2016.1080p.WEB-DL.H264
Encoded date : UTC 2016-09-23 09:36:17
Writing application : mkvmerge v8.9.0 ( Father Daughter ) 64bit
Writing library : libebml v1.3.3 + libmatroska v1.4.4

Video
ID : 1
Format : AVC
Format/Info : Advanced Video Codec
Format profile : [email protected]/* */*คำต้องห้าม*
Format settings, CABAC : Yes
Format settings, ReFrames : 5 frames
Codec ID : V_MPEG4/ISO/AVC
Duration : 2h 0mn
Bit rate : 4 453 Kbps
Width : 1 916 pixels
Height : 798 pixels
Display aspect ratio : 2.40:1
Frame rate mode : Constant
Frame rate : 23.976 fps
Color space : YUV
Chroma subsampling : 4:2:0
Bit depth : 8 bits
Scan type : Progressive
Bits/(Pixel*Frame) : 0.121
Stream size : 3.74 GiB (94%)
Title : /Independence.Day.Resurgence.2016.1080p.WEB-DL.H264.AC3.THEATER
Language : English
Default : Yes
Forced : Yes
Color range : Limited
Color primaries : BT.709
Transfer characteristics : BT.709
Matrix coefficients : BT.709

Audio
ID : 2
Format : AC-3
Format/Info : Audio Coding 3
Mode extension : CM (complete main)
Format settings, Endianness : Big
Codec ID : A_AC3
Duration : 2h 0mn
Bit rate mode : Constant
Bit rate : 192 Kbps
Channel(s) : 2 channels
Channel positions : Front: L R
Sampling rate : 48.0 KHz
Compression mode : Lossy
Stream size : 165 MiB (4%)
Title : TH AC3 THEATER
Language : Thai
Default : Yes
Forced : Yes

 



VIP 1-Part

[ Download ]



Free 1GB/Part

เปลี่ยนชื่อไฟล์ตามลำดับก่อนเเยกไฟล์ เช่น

Independence.Day.part1.rar
Independence.Day.part2.rar
Independence.Day.part3.rar

ไฟล์เสียสามารถซ่อมได้



Facebook Comments