Transformers: The Last Knight (2017) | ทรานส์ฟอร์เมอร์ส 5: อัศวินรุ่นสุดท้าย

แตกเรื่องจากแก่นเรื่องหลักของแฟรนไชส์ทรานฟอร์เมอร์ส และให้คำจำกัดความวีรบุรุษใหม่ มนุษย์และทรานส์ฟอร์เมอร์ส์อยู่ในสงคราม ออพติมัสจากไป การปกป้องอนาคตของพวกเราขึ้นอยู่กับความลับในอดีต ที่ซ่อนอยู่ในประวัติศาสตร์ทรานส์ฟอร์เมอร์สบนโลกใบนี้ More & Download »

Wonder Woman (2017) | วันเดอร์ วูแมน

กัล กาดอท (Gal Gadot) กลับมาสวมบท วันเดอร์วูแมน ในอภิมหาการผจญภัยจากฝีมือของผู้กำกับ แพ็ตตี้ เจนกินส์ (Patty Jenkins) โดยก่อนที่เธอจะเป็น วันเดอร์วูแมน เธอคือ ไดนาอ่า เจ้าหญิงแห่งอเมซอนที่ถูกฝึกฝนให้เป็นนักรบไร้เทียมทาน ซึ่งระหว่างเติบโตบนเกาะสวรรค์อันโดดเดี่ยว More & Download »

The Mummy (2017) | เดอะ มัมมี่

พบกับทอม ครูซ ใน เดอะ มัมมี่ เวอร์ชั่นใหม่ที่ตื่นตาตื่นใจ ของตำนานที่ดึงดูดใจผู้คนทั่วโลกมาตั้งแต่ยุคเริ่มต้นของอารยธรรม หลังจากถูกฝังในสุสานใต้ทะเลทรายที่ไม่มีวันได้รับการอภัย ราชินีในยุคโบราณ More & Download »

Baywatch (2017) | ไลฟ์การ์ดฮอตพิทักษ์หาด

เล่าวีรกรรมของไลฟ์การ์ดผู้เสียสละอย่าง มิทช์ บูแชนนอน (เดอะร็อค) ที่ต้องกระทบกระทั่งกับลูกทีมคนใหม่นามว่า แมตต์ โบรดี้ (แซค แอฟรอน) โดยพวกเขาต้องร่วมมือกันเพื่อหยุดยั้งอำนาจของอาชญากรท้องถิ่น ที่อาจเป็นภัยคุกคามต่อชายหาดแห่งนี้ในอนาคต!!! More & Download »

Pirates of the Caribbean : Dead Men Tell No Tales (2017) | สงครามแค้นโจรสลัดไร้ชีพ

มุ่งหน้าเปิดศึกแห่งมหาสมุทรบทใหม่โดยมี “ตรีศูลของโพไซดอน” อาวุธสำคัญของเทพแห่งกรีกเป็นศูนย์กลางของเรื่อง More & Download »

 

[ฝรั่ง]-[Mini-HD] Guardians of the Galaxy Vol. 2 (2017) | รวมพันธุ์นักสู้พิทักษ์จักรวาล 2 (1080p)-[พากย์ไทย 2.0 iTune + อังกฤษ DTS]-[บรรยายไทย + อังกฤษ]

Master

 เรื่องย่อ 


      Guardians of the Galaxy Vol. 2 สานต่อการผจญภัยของเหล่าแก๊งค์เกรียนแห่งจักรวาลมาร์เวล เมื่อพวกเขาเดินทางไกลออกไปในจักรวาล ต่อสู้เพื่อรักษาครอบครัวใหม่ที่พวกเขาเพิ่งมีร่วมกัน และไขปริศนาเกี่ยวกับผู้ให้กำเนิดที่แท้จริงของปีเตอร์ ควิลล์ศัตรูเก่ากลายมาเป็นพันธมิตรใหม่ และเหล่าตัวละครที่แฟนๆชื่นชอบจากคอมิคส์สุดคลาสสิคทจะมาร่วมมือกับเหล่าผู้พิทักษ์จักรวาลสุดเกรียน เพราะจักรวาลภาพยนตร์มาร์เวลได้ขยายออกไปอย่างไม่หยุดยั้ง

File Info

Format : Matroska
Format version : Version 4 / Version 2
File size : 4.83 GiB
Duration : 2 h 16 min
Overall bit rate : 5 076 kb/s

Video
ID : 1
Format : AVC
Format/Info : Advanced Video Codec
Format profile : High@L4
Format settings, CABAC : Yes
Format settings, ReFrames : 5 frames
Codec ID : V_MPEG4/ISO/AVC
Duration : 2 h 16 min
Bit rate : 4 511 kb/s
Width : 1 920 pixels
Height : 804 pixels
Display aspect ratio : 2.40:1
Frame rate mode : Constant
Frame rate : 23.976 (24000/1001) FPS
Color space : YUV
Chroma subsampling : 4:2:0
Bit depth : 8 bits
Scan type : Progressive
Bits/(Pixel*Frame) : 0.122
Stream size : 4.29 GiB (89%)
Language : English
Default : Yes
Forced : No
Color range : Limited
Color primaries : BT.709
Transfer characteristics : BT.709
Matrix coefficients : BT.709

Audio #1
ID : 2
Format : AC-3
Format/Info : Audio Coding 3
Format settings, Endianness : Big
Codec ID : A_AC3
Duration : 2 h 15 min
Bit rate mode : Constant
Bit rate : 384 kb/s
Channel(s) : 6 channels
Channel positions : Front: L C R, Side: L R, LFE
Sampling rate : 48.0 kHz
Frame rate : 31.250 FPS (1536 spf)
Bit depth : 16 bits
Compression mode : Lossy
Delay relative to video : -43 ms
Stream size : 373 MiB (8%)
Title : English AC3 5.1 iTunes MASTER
Language : English
Service kind : Complete Main
Default : No
Forced : No

Audio #2
ID : 3
Format : AAC
Format/Info : Advanced Audio Codec
Format profile : LC
Codec ID : A_AAC
Duration : 2 h 15 min
Bit rate : 126 kb/s
Channel(s) : 2 channels
Channel positions : Front: L R
Sampling rate : 48.0 kHz
Frame rate : 46.875 FPS (1024 spf)
Compression mode : Lossy
Delay relative to video : -43 ms
Stream size : 123 MiB (2%)
Title : Thai AAC 2.0 iTunes MASTER
Language : Thai
Default : Yes
Forced : Yes

Text #1
ID : 4
Format : PGS
Muxing mode : zlib
Codec ID : S_HDMV/PGS
Codec ID/Info : Picture based subtitle format used on BDs/HD-DVDs
Duration : 2 h 15 min
Bit rate : 17.9 kb/s
Count of elements : 3178
Stream size : 17.4 MiB (0%)
Title : Thai PGS Yellow
Language : Thai
Default : No
Forced : No

Text #2
ID : 5
Format : PGS
Muxing mode : zlib
Codec ID : S_HDMV/PGS
Codec ID/Info : Picture based subtitle format used on BDs/HD-DVDs
Duration : 2 h 15 min
Bit rate : 17.8 kb/s
Count of elements : 3178
Stream size : 17.3 MiB (0%)
Title : Thai PGS
Language : Thai
Default : No
Forced : No

Text #3
ID : 6
Format : PGS
Muxing mode : zlib
Codec ID : S_HDMV/PGS
Codec ID/Info : Picture based subtitle format used on BDs/HD-DVDs
Duration : 2 h 15 min
Bit rate : 17.9 kb/s
Count of elements : 3178
Stream size : 17.4 MiB (0%)
Title : English PGS
Language : English
Default : No
Forced : No

Menu
00:00:00.000 : en:King Cobra & Giant Sea Monkey
00:09:56.000 : en:Golden Morons
00:15:10.000 : en:Space Chase
00:22:14.000 : en:Not From Missouri
00:32:33.000 : en:Deepest, Darkest Secrets
00:36:52.000 : en:Berhert Ambush
00:42:29.000 : en:Finding Meaning
00:48:03.000 : en:Taserface
00:53:19.000 : en:Celestial Catch
00:58:46.000 : en:Let s Agree To Never Discuss This
01:05:52.000 : en:Eclector Escape
01:11:12.000 : en:Sibling Rivalry
01:18:43.000 : en:Eternity
01:23:55.000 : en:Two Of A Kind
01:30:24.000 : en:Inflated Ego
01:39:36.000 : en:What A Day
01:47:06.000 : en:From The Heart
01:54:21.000 : en:A Father s Sacrifice
01:58:52.000 : en:The Colors Of Ogord
02:07:13.000 : en:End Credits

 



VIP 1-Part

Cornfile

[ Download ]


cornfile.com



Free 1GB/Part

เปลี่ยนชื่อไฟล์ตามลำดับก่อนเเยกไฟล์ เช่น

Guardians.of.the.Galaxy.Vol.2.part1.rar
Guardians.of.the.Galaxy.Vol.2.part2.rar
Guardians.of.the.Galaxy.Vol.2.part3.rar

ไฟล์เสียสามารถซ่อมได้


Leave a Reply

Your email address will not be published. Required fields are marked *