Transformers: The Last Knight (2017) | ทรานส์ฟอร์เมอร์ส 5: อัศวินรุ่นสุดท้าย

แตกเรื่องจากแก่นเรื่องหลักของแฟรนไชส์ทรานฟอร์เมอร์ส และให้คำจำกัดความวีรบุรุษใหม่ มนุษย์และทรานส์ฟอร์เมอร์ส์อยู่ในสงคราม ออพติมัสจากไป การปกป้องอนาคตของพวกเราขึ้นอยู่กับความลับในอดีต ที่ซ่อนอยู่ในประวัติศาสตร์ทรานส์ฟอร์เมอร์สบนโลกใบนี้ More & Download »

Wonder Woman (2017) | วันเดอร์ วูแมน

กัล กาดอท (Gal Gadot) กลับมาสวมบท วันเดอร์วูแมน ในอภิมหาการผจญภัยจากฝีมือของผู้กำกับ แพ็ตตี้ เจนกินส์ (Patty Jenkins) โดยก่อนที่เธอจะเป็น วันเดอร์วูแมน เธอคือ ไดนาอ่า เจ้าหญิงแห่งอเมซอนที่ถูกฝึกฝนให้เป็นนักรบไร้เทียมทาน ซึ่งระหว่างเติบโตบนเกาะสวรรค์อันโดดเดี่ยว More & Download »

The Mummy (2017) | เดอะ มัมมี่

พบกับทอม ครูซ ใน เดอะ มัมมี่ เวอร์ชั่นใหม่ที่ตื่นตาตื่นใจ ของตำนานที่ดึงดูดใจผู้คนทั่วโลกมาตั้งแต่ยุคเริ่มต้นของอารยธรรม หลังจากถูกฝังในสุสานใต้ทะเลทรายที่ไม่มีวันได้รับการอภัย ราชินีในยุคโบราณ More & Download »

Baywatch (2017) | ไลฟ์การ์ดฮอตพิทักษ์หาด

เล่าวีรกรรมของไลฟ์การ์ดผู้เสียสละอย่าง มิทช์ บูแชนนอน (เดอะร็อค) ที่ต้องกระทบกระทั่งกับลูกทีมคนใหม่นามว่า แมตต์ โบรดี้ (แซค แอฟรอน) โดยพวกเขาต้องร่วมมือกันเพื่อหยุดยั้งอำนาจของอาชญากรท้องถิ่น ที่อาจเป็นภัยคุกคามต่อชายหาดแห่งนี้ในอนาคต!!! More & Download »

Pirates of the Caribbean : Dead Men Tell No Tales (2017) | สงครามแค้นโจรสลัดไร้ชีพ

มุ่งหน้าเปิดศึกแห่งมหาสมุทรบทใหม่โดยมี “ตรีศูลของโพไซดอน” อาวุธสำคัญของเทพแห่งกรีกเป็นศูนย์กลางของเรื่อง More & Download »

 

[ฝรั่ง]-[Mini-HD] Deepwater Horizon (2016) | ฝ่าวิบัติเพลิงนรก (1080p)-[พากย์ไทยโรง + อังกฤษ 5.1]-[บรรยายอังกฤษ]

HD เสียงโรง


 เรื่องย่อ 


      Deepwater Horizon ภาพยนตร์แนวมหันตภัยฟอร์มยักษ์ ที่สร้างมาจากเรื่องจริงของเหตุการณ์แท่นขุดเจาะน้ำม ันระเบิดครั้งที่ยิ่งใหญ่ที่สุดครั้งหนึ่งในหน้าประว ัติศาสตร์ โดยภาพยนตร์บอกเล่าถึงความกล้าหาญของเหล่าบรรดาคนงาน บนแท่นขุดเจาะน้ำมันดิบชื่อว่า “ดีปวอเทอร์ ฮอไรซัน” ในอ่าวเม็กซิโกเมื่อปี 2010 ที่ต้องพยายามเอาชีวิตทั้งของตนเองและพวกพ้องให้รอดจ ากมหันตภัยครั้งนี้ ซึ่งนับเป็นเหตุการณ์ท้าทายขีดจำกัดของมนุษย์ที่ถูกบ ันทึกไว้ว่าเป็น การรั่วไหลนอกชายฝั่งครั้งที่ใหญ่ที่สุดในประวัติศาส ตร์สหรัฐอเมริกา

File Info

General

Unique ID : 254945428907126361567420999254225090707 (0xBFCCB41D462F2716B5B83EB23AE67893)
Complete name : Deepwater.Horizon.2016.1080p.[HDrip].Eng.DD_5.1.H264_Finverr4Movie.mkv
Format : Matroska
Format version : Version 4 / Version 2
File size : 4.08 GiB
Duration : 1 h 47 min
Overall bit rate : 5 445 kb/s
Movie name : Deepwater.Horizon.2016.1080p.Eng.DD_5.1.H264***yonaray***
Encoded date : UTC 2016-12-25 09:29:01
Writing application : mkvmerge v9.2.0 ( Photograph ) 64bit
Writing library : libebml v1.3.3 + libmatroska v1.4.4
Cover : Yes
Attachments : cover_land.jpg / small_cover.jpg / small_cover_land.jpg / cover.jpg

Video
ID : 1
Format : AVC
Format/Info : Advanced Video Codec
Format profile : yonaray
Format settings, CABAC : Yes
Format settings, ReFrames : 5 frames
Codec ID : V_MPEG4/ISO/AVC
Duration : 1 h 47 min
Bit rate : 4 547 kb/s
Width : 1 908 pixels
Height : 792 pixels
Display aspect ratio : 2.40:1
Frame rate mode : Constant
Frame rate : 23.976 (24000/1001) FPS
Color space : YUV
Chroma subsampling : 4:2:0
Bit depth : 8 bits
Scan type : Progressive
Bits/(Pixel*Frame) : 0.125
Stream size : 3.41 GiB (83%)
Title : Deepwater.Horizon.2016.1080p.[HDrip].Eng.DD_5.1.H264_Finverr4Movie
Language : English
Default : Yes
Forced : No
Color range : Limited
Color primaries : BT.709
Transfer characteristics : BT.709
Matrix coefficients : BT.709

Audio #1
ID : 2
Format : AC-3
Format/Info : Audio Coding 3
Mode extension : CM (complete main)
Format settings, Endianness : Big
Codec ID : A_AC3
Duration : 1 h 47 min
Bit rate mode : Constant
Bit rate : 512 kb/s
Channel(s) : 2 channels
Channel positions : Front: L R
Sampling rate : 48.0 kHz
Frame rate : 31.250 FPS (1536 spf)
Bit depth : 16 bits
Compression mode : Lossy
Stream size : 393 MiB (9%)
Title : AC3.Thai_Theater. 2ch
Language : Thai
Default : No
Forced : No

Audio #2
ID : 3
Format : AC-3
Format/Info : Audio Coding 3
Mode extension : CM (complete main)
Format settings, Endianness : Big
Codec ID : A_AC3
Duration : 1 h 47 min
Bit rate mode : Constant
Bit rate : 384 kb/s
Channel(s) : 6 channels
Channel positions : Front: L C R, Side: L R, LFE
Sampling rate : 48.0 kHz
Frame rate : 31.250 FPS (1536 spf)
Bit depth : 16 bits
Compression mode : Lossy
Stream size : 295 MiB (7%)
Title : Deepwater.Horizon.2016.1080p.[HDrip].Eng.DD_5.1.H264-yo
Language : English
Default : Yes
Forced : No

Text #1
ID : 4
Format : UTF-8
Codec ID : S_TEXT/UTF8
Codec ID/Info : UTF-8 Plain Text
Duration : 1 h 40 min
Bit rate : 63 b/s
Count of elements : 1378
Stream size : 46.6 KiB (0%)
Title : SubRib/SRT
Language : English
Default : Yes
Forced : No

Text #2
ID : 5
Format : UTF-8
Codec ID : S_TEXT/UTF8
Codec ID/Info : UTF-8 Plain Text
Duration : 1 h 36 min
Bit rate : 67 b/s
Count of elements : 1172
Stream size : 47.9 KiB (0%)
Title : SubRib/SRT
Language : English
Default : No
Forced : No

Menu
00:00:00.000 : en:1
00:01:42.000 : en:2
00:11:00.000 : en:3
00:21:27.000 : en:4
00:31:57.000 : en:5
00:43:56.000 : en:6
00:53:48.000 : en:7
01:01:17.000 : en:8
01:11:23.000 : en:9
01:21:24.000 : en:10
01:31:38.000 : en:11
01:38:25.000 : en:12

 



VIP 1-Part

[ Download ]



Free 1GB/Part

เปลี่ยนชื่อไฟล์ตามลำดับก่อนเเยกไฟล์ เช่น

Deepwater.Horizon.part1.rar
Deepwater.Horizon.part2.rar
Deepwater.Horizon.part3.rar

ไฟล์เสียสามารถซ่อมได้


Leave a Reply

Your email address will not be published. Required fields are marked *

}