The Fate of the Furious (Fast And Furious 8) (2017) | เร็ว…แรงทะลุนรก 8

วิน ดีเซล, ดเวย์น จอห์นสัน และ มิเชล ร็อดริเกซ นำทีมซิ่งในภาพยนตร์ฮิตถล่มทลายไปทั่วโลกที่อัดแน่นด้วยความมันส์พลังแรงสูงกับ Fast & Furious 8 เวลานี้ ดอม (ดีเซล) และเล็ตตี้ (ร็อดริเกซ) ได้แต่งงานกัน ส่วนไบรอันและมีอาก็ปลดระวางตัวเองไปใช้ชีวิตครอบครัว ขณะที่สมาชิกร่วมแก๊งคนอื่นๆ ก็พ้นจากข้อกล่าวหา และกลับมาใช้ชีวิตอย่างปกติ จนเมื่อสตรีลึกลับนางหนึ่ง (ผู้ชนะรางวัลออสการ์ ชาร์ลิซ เธอรอน) เข้ามาล่อลวงดอมสู่โลกอาชญากรรม โดยที่เขาไม่มีทางเลือกและกลายเป็นคนทรยศต่อครอบครัว More & Download »

Resident Evil:Vendetta (2017) | ล้างบางเชื้อคลั่ง/สงครามแค้นแพร่พันธุ์ไวรัส

หน่วยงาน BSAA “คริส เรดฟิลด์” ได้ทำการสืบสวนหาสาเหตุการแพร่กระจายไวรัสชนิดใหม่ ที่ทำให้คนที่ตายไปแล้วคืนชีพขึ้นมาและบ้าคลั่งทำร้า ยคนอื่น โดยมีเบื้องหลังคือพ่อค้าอาวุธชีวภาพ “เกลน แอรีส” ชายผู้หมายจะครองตลาดค้าอาวุธชีวภาพด้วยการเก็บตกเหล ่าเชื้อไวรัสของบ.ไทรเซล และอัมเบรลล่า More & Download »

John Wick: Chapter 2 (2017) | จอห์น วิค: แรงกว่านรก 2

คีอานู รีฟส์ กลับมารับบทเดิมในภาคต่อของหนังแอ็คชั่นยอดฮิตแห่งปี 2014 John Wick มือสังหารผู้เป็นตำนานที่ถูกบีบให้กลับมาทำงานอีกครั้งหลังจากเกษียณตัวเองไป เพราะอดีตเพื่อนร่วมงานวางแผนเข้าควบคุมองค์กรมือสังหารลับข้ามชาติ ด้วยความผูกพันธ์ดุจพี่น้องต่างสายเลือด จอห์น ให้คำมั่นว่าจะช่วย เขาเดินทางไปกรุงโรมที่ซึ่งเขาต้องเผชิญกับบรรดานักฆ่าที่อันตรายที่สุดในโลก!!! More & Download »

Kong: Skull Island (2017) | คอง: มหาภัยเกาะกะโหลก

จากทีมผู้อำนวยการสร้าง Godzilla นำตำนานความเป็นมาของสัตว์ประหลาดที่ทรงพลังที่สุดอีกตัวหนึ่งมาสร้างสรรค์ใหม่ การผจญภัยอันแปลกใหม่ชวนติดตามจากผู้กำกับจอร์แดน วอกท์-โรเบิร์ตส์ เรื่องราวของทีมนักวิทยาศาสตร์ ทหาร และนักผจญภัย ที่มารวมตัวกันเพื่อสำรวจเกาะในตำนานกลางมหาสมุทรแปซิฟิกซึ่งไม่เคยมีใครสำรวจมาก่อน More & Download »

 

[ฝรั่ง]-[Mini-HD] Astro Boy (2009) | เจ้าหนูพลังปรมาณู (1080p)-[พากย์ไทย 5.1 + อังกฤษ DTS]-[บรรยายสเปน]

Master


 เรื่องย่อ 


      Astro Boy สุดยอดภาพยนตร์แอนิเมชั่น 3D ปฐมบทของเจ้าหนูในตำนาน อุบัติพลังล้ำจินตนาการ สร้างปรากฏการณ์สู่สายตาทั้งโลก เรื่องราวใน Astro Boy เกิดขึ้นในโลกแห่งอนาคต เมื่อ Dr.Tenma นักวิทยาศาตร์อัจฉริยะได้่สร้างหุ่นยนต์เด็กที่มีพลังมหาศาลชื่อว่า Astro Boy หรือ เจ้าหนูปรมาณู ขึ้นมา โดยหวังว่าจะสามารถมาทดแทนลูกชายของเขาที่เสียไปจากอุบัติเหตุ แต่เมื่อเจ้าหนูปรมาณูไม่สามารถทดแทนสิ่งที่ Dr.Tenma คาดหวังไว้ได้ เจ้าหนูปรมาณูจึงออกเดินทางเพื่อเด็กมูฟวี่แสวงหาการยอมรับ ซึ่งเขาไม่เคยได้จากผู้ที่สร้างเขาขึ้นมา แต่เจ้าหนูปรมาณกลับได้เจอกับโลกที่เต็มไปด้วยการต่อสู้ระหว่างหุ่นยนต์ เขาจึงได้กลับมาเพื่อกอบกู้โลกจากเหล่าร้าย และหวังว่าคนที่เคยปฎิเสธเขาไปแล้ว จะหันมายอมรับในตัวเขา

File Info

Format : Matroska
Format version : Version 4 / Version 2
File size : 3.24 GiB
Duration : 1h 33mn
Overall bit rate : 4 939 Kbps
Movie name : Sinbad Legend of the Seven Seas (2003) BRRip 720p x264 [Dual Audio] [Hindi+English]–prisak~~{HKRG}
Encoded date : UTC 2016-12-06 09:32:48
Writing application : mkvmerge v6.0.0 ( Coming Up For Air ) built on Jan 20 2013 09:52:00
Writing library : libebml v1.3.0 + libmatroska v1.4.0

Video
ID : 1
Format : AVC
Format/Info : Advanced Video Codec
Format profile : High@L4.1
Format settings, CABAC : Yes
Format settings, ReFrames : 4 frames
Codec ID : V_MPEG4/ISO/AVC
Duration : 1h 33mn
Bit rate : 3 140 Kbps
Width : 1 920 pixels
Height : 816 pixels
Display aspect ratio : 2.35:1
Frame rate mode : Constant
Frame rate : 23.810 fps
Color space : YUV
Chroma subsampling : 4:2:0
Bit depth : 8 bits
Scan type : Progressive
Bits/(Pixel*Frame) : 0.084
Stream size : 2.06 GiB (64%)
Writing library : x264 core 130 r2273 b3065e6
Encoding settings : cabac=1 / ref=3 / deblock=1:0:0 / analyse=0x3:0x113 / me=hex / subme=7 / psy=1 / psy_rd=1.00:0.00 / mixed_ref=1 / me_range=16 / chroma_me=1 / trellis=1 / 8x8dct=1 / cqm=0 / deadzone=21,11 / fast_pskip=1 / chroma_qp_offset=-2 / threads=6 / lookahead_threads=1 / sliced_threads=0 / nr=0 / decimate=1 / interlaced=0 / bluray_compat=0 / constrained_intra=0 / bframes=3 / b_pyramid=2 / b_adapt=1 / b_bias=0 / direct=1 / weightb=1 / open_gop=0 / weightp=2 / keyint=240 / keyint_min=24 / scenecut=40 / intra_refresh=0 / rc_lookahead=40 / rc=crf / mbtree=1 / crf=20.0 / qcomp=0.60 / qpmin=0 / qpmax=69 / qpstep=4 / vbv_maxrate=62500 / vbv_bufsize=78125 / crf_max=0.0 / nal_hrd=none / ip_ratio=1.40 / aq=1:1.00
Default : Yes
Forced : No
Color primaries : BT.709
Transfer characteristics : BT.709
Matrix coefficients : BT.709

Audio #1
ID : 2
Format : DTS
Format/Info : Digital Theater Systems
Mode : 16
Format settings, Endianness : Big
Codec ID : A_DTS
Duration : 1h 33mn
Bit rate mode : Constant
Bit rate : 1 509 Kbps
Channel(s) : 6 channels
Channel positions : Front: L C R, Side: L R, LFE
Sampling rate : 48.0 KHz
Bit depth : 24 bits
Compression mode : Lossy
Stream size : 1 013 MiB (31%)
Language : English
Default : Yes
Forced : No

Audio #2
ID : 3
Format : AC-3
Format/Info : Audio Coding 3
Mode extension : CM (complete main)
Format settings, Endianness : Big
Codec ID : A_AC3
Duration : 1h 33mn
Bit rate mode : Constant
Bit rate : 192 Kbps
Channel(s) : 6 channels
Channel positions : Front: L C R, Side: L R, LFE
Sampling rate : 48.0 KHz
Bit depth : 16 bits
Compression mode : Lossy
Stream size : 129 MiB (4%)
Title : Th
Language : Thai
Default : No
Forced : No

Text #1
ID : 4
Format : PGS
Muxing mode : zlib
Codec ID : S_HDMV/PGS
Codec ID/Info : The same subtitle format used on BDs/HD-DVDs
Language : Spanish
Default : No
Forced : No

Text #2
ID : 5
Format : PGS
Muxing mode : zlib
Codec ID : S_HDMV/PGS
Codec ID/Info : The same subtitle format used on BDs/HD-DVDs
Language : Spanish
Default : Yes
Forced : No

 



VIP 1-Part

[ Download ]



Free 1GB/Part

เปลี่ยนชื่อไฟล์ตามลำดับก่อนเเยกไฟล์ เช่น

Astro.Boy.part1.rar
Astro.Boy.part2.rar
Astro.Boy.part3.rar

ไฟล์เสียสามารถซ่อมได้


Leave a Reply

Your email address will not be published. Required fields are marked *

}