Death Note: Light Up The New World (2016) | สมุดมรณะ

กว่า 10 ปีที่ห่างหายจากจอเงิน Death Note จะถูกสร้างเป็นภาพยนตร์ภาคต่อ โดยตอนนี้จะใช้ชื่ออย่างไม่เป็นทางการว่า Death Note 2016 สำหรับเรื่องราวนั้นจะมีการปรับเปลี่ยน ตัวละครนำ และ ฉากหลัง ของเหตุการณ์ที่เกิดขึ้น โดยหนังฉบับ 2016 นั้น จะมีฉากหลังเป็นยุคปัจจุบันที่โลกถูกคุกคามด้วยการก่อการร้ายทางโลกไซเบอร์อย่างสาหัส พร้อมกับมีตัวละครนำที่เป็น ผู้สืบทอดดีเอ็นเอของไลท์ และแอล ปรากฏตัวขึ้น More & Download »

Resident Evil: The Final Chapter (2016) | อวสานผีชีวะ

เรื่องราวเกี่ยวกับช่วงเวลาสุดท้ายของมนุษยชาติที่ใกล้จะสิ้นเผ่าพันธ์เหลืออลิซเพียงคนเดียวที่เป็นผู้อยู่รอดหลังเหตุการณ์ในวอชิงตันดีซี ซึ่งเธอต้องหยัดยืนเพื่อการต่อกรกับพวกซอมบี้ผีชีวะ และย้อนกลับไปยังจุดเริ่มต้นของหายนะทั้งหมดในขณะนีเดียวกัน อัมเบรลลาคอร์ป ก็เริ่มระดมพลเพื่อกำจัดมนุษย์ที่เหลือรอดให้หมดไปจากโลก การต่อสู้ของอลิซจึงต้องแข่งกับเวลาเพื่อยับยั้งการล้างโลกของอัมเบรลลา More & Download »

Underworld: Blood Wars (2016) | มหาสงครามล้างพันธุ์อสูร

ในภาคนี้ เซลีน แวมไพร์สาวตัวเอกของเรื่อง จะต้องเดินทางเดินทางขึ้นเหนือสู่ดินแดนอันหนาวเย็นเพื่อค้นหาคำตอบบางอย่าง ซึ่งแน่นอนว่าเธอได้นำความอันตรายและผู้ที่ต้องการตามล่าตัวเธอติดตามไปด้วย เราจึงจะได้เห็นฉากการต่อสู้ท่ามกลางหิมะอันดุเดือด ระหว่างแวมไพร์และไลแคน!!! More & Download »

Shin Godzilla (2016) | ก็อดซิลล่า: รีเซอร์เจนซ์

สร้างขึ้นจากเหตุการณ์จริงกับเรื่องราวของ กัปตัน เชสลีย์ บี. “ซัลลี่” ซัลเลนเบอร์เกอร์ (รับบทโดย ทอม แฮงค์ส) ที่เคยสร้างปาฏิหาริย์ในการนำเครื่องบิน US Airways ไฟท์ 1549 ลงจอดกลางแม่น้ำฮัตสันหลังจากเกิดเหตุการณ์ที่ไม่คาดฝันเมื่อเครื่องบินลำนั้นต้องปะทะกับฝูงนกอย่างรุนแรง More & Download »

Fantastic Beasts and Where to Find Them (2016) | สัตว์มหัศจรรย์และถิ่นที่อยู่

มีอันตรายเกิดขึ้นในโลกแห่งเวทมนตร์เมื่อปี 1926 ที่นิวยอร์ค มีสิ่งลึกลับสร้างความเสียหายบนท้องถนน ซึ่งเป็นภัยคุกคามเพื่อเปิดโปงเหล่าเวทมนตร์ให้พวกเซเล็มรุ่น 2 ซึ่งเป็นลัทธิอันตรายของโน-แมจ (มักเกิลของชาวอเมริกัน) ที่ตั้งใจจะกำจัดพวกเขาให้สิ้นซาก และพ่อมดร้ายผู้ทรงพลัง เกลเลิร์ต กรินเดลวัลด์ หลังสร้างความเสียหายไว้ที่ยุโรปและได้หนีไป จนตอนนี้ยังไม่พบเจอตัว ความเครียดได้ก่อตัวขึ้นอย่างไม่ทันตั้งตัว นิวท์ สคามันเดอร์ เดินทางมาถึงที่เมือง ซึ่งเป็นการเดินทางเกือบสุดขอบโลกเพื่อตามหาและช่วยชีวิตสัตว์มหัศจรรย์ โดยสัตว์บางตัวจะได้รับการปกป้องให้หลบซ่อนอยู่ในกระเป๋าหนังที่ดูพรางตาได้ แต่สุดท้ายกลับเกิดความเสียหายขึ้นเมื่อโน-แมจ เจค็อบ โควัลสกี บังเอิญปล่อยสัตว์บางตัวของนิวท์หลุดออกมาในเมือง!!! More & Download »

 

[ฝรั่ง]-[Mini-HD] Inferno (2016) | โลกันตนรก (1080p)-[พากย์ไทยโรง + อังกฤษ 5.1]-[บรรยายอังกฤษ]

HD เสียงโรง


 เรื่องย่อ 


      Inferno เรื่องราวเกิดขึ้นเมื่อศาสตราจารย์โรเบิร์ต แลงก์ดอน ตื่นขึ้นกลางโรงพยาบาลในอิตาลีในภาวะสูญเสียความทรงจำบางส่วน แต่ถึงอย่างนั้นเขาได้รับความช่วยเหลือจากคุณหมอสาว เซียนนา บรูคส์ ที่ช่วยฟื้นความจำและร่วมออกผจญภัยเพื่อหยุดยั้งหายนะอันร้ายแรง ซึ่งเชื่อมโยงกับวรรณกรรมสุดคลาสสิกเรื่อง อินเฟร์โน

File Info

Unique ID : 253492754917408327964372743223090574134 (0xBEB4EDC1C72056CA8D270F1A5FAF7336)
Complete name : Inferno (2016) 1080p WEB-DL x264_Finverr4Movie.mkv
Format : Matroska
Format version : Version 4 / Version 2
File size : 3.51 GiB
Duration : 2 h 1 min
Overall bit rate : 4 127 kb/s
Movie name : siambit.tv (2016) 1080p WEB-DL x264 .
Encoded date : UTC 2016-12-23 07:26:27
Writing application : mkvmerge v9.2.0 ( Photograph ) 64bit
Writing library : libebml v1.3.3 + libmatroska v1.4.4

Video
ID : 1
Format : AVC
Format/Info : Advanced Video Codec
Format profile : yonaray
Format settings, CABAC : Yes
Format settings, ReFrames : 4 frames
Codec ID : V_MPEG4/ISO/AVC
Duration : 2 h 1 min
Bit rate : 3 550 kb/s
Width : 1 916 pixels
Height : 1 036 pixels
Display aspect ratio : 1.85:1
Frame rate mode : Constant
Frame rate : 23.976 (24000/1001) FPS
Color space : YUV
Chroma subsampling : 4:2:0
Bit depth : 8 bits
Scan type : Progressive
Bits/(Pixel*Frame) : 0.075
Stream size : 3.02 GiB (86%)
Title : siambit.tv (2016) 1080p WEB-DL x264 _yonaray
Writing library : x264 core 148 r2638 7599210
Encoding settings : cabac=1 / ref=4 / deblock=1:-1:-1 / analyse=0x3:0x133 / me=umh / subme=7 / psy=1 / psy_rd=1.00:0.00 / mixed_ref=1 / me_range=30 / chroma_me=1 / trellis=1 / 8x8dct=1 / cqm=2 / deadzone=21,11 / fast_pskip=0 / chroma_qp_offset=-2 / threads=12 / lookahead_threads=3 / sliced_threads=0 / slices=4 / nr=0 / decimate=1 / interlaced=0 / bluray_compat=0 / constrained_intra=0 / bframes=5 / b_pyramid=2 / b_adapt=2 / b_bias=0 / direct=3 / weightb=1 / open_gop=0 / weightp=2 / keyint=240 / keyint_min=23 / scenecut=40 / intra_refresh=0 / rc_lookahead=50 / rc=2pass / mbtree=1 / bitrate=3550 / ratetol=1.0 / qcomp=0.60 / qpmin=1 / qpmax=69 / qpstep=4 / cplxblur=20.0 / qblur=0.5 / vbv_maxrate=62500 / vbv_bufsize=78125 / nal_hrd=none / filler=0 / ip_ratio=1.40 / aq=1:1.00
Language : English
Default : Yes
Forced : No

Audio #1
ID : 2
Format : AC-3
Format/Info : Audio Coding 3
Mode extension : CM (complete main)
Format settings, Endianness : Big
Codec ID : A_AC3
Duration : 2 h 1 min
Bit rate mode : Constant
Bit rate : 384 kb/s
Channel(s) : 6 channels
Channel positions : Front: L C R, Side: L R, LFE
Sampling rate : 48.0 kHz
Frame rate : 31.250 FPS (1536 spf)
Bit depth : 16 bits
Compression mode : Lossy
Stream size : 334 MiB (9%)
Title : siambit.tv 2016. AC3_Eng 6CH
Language : English
Default : Yes
Forced : No

Audio #2
ID : 5
Format : AC-3
Format/Info : Audio Coding 3
Mode extension : CM (complete main)
Format settings, Endianness : Big
Codec ID : A_AC3
Duration : 2 h 1 min
Bit rate mode : Constant
Bit rate : 192 kb/s
Channel(s) : 2 channels
Channel positions : Front: L R
Sampling rate : 48.0 kHz
Frame rate : 31.250 FPS (1536 spf)
Bit depth : 16 bits
Compression mode : Lossy
Stream size : 167 MiB (5%)
Title : AC3_Thai Theater 2 CH
Language : Thai
Default : No
Forced : Yes

Text #1
ID : 3
Format : UTF-8
Codec ID : S_TEXT/UTF8
Codec ID/Info : UTF-8 Plain Text
Duration : 57 min 24 s
Bit rate : 2 b/s
Count of elements : 29
Stream size : 1 016 Bytes (0%)
Title : ENG_SRT
Language : English
Default : Yes
Forced : Yes

Text #2
ID : 4
Format : UTF-8
Codec ID : S_TEXT/UTF8
Codec ID/Info : UTF-8 Plain Text
Duration : 1 h 55 min
Bit rate : 53 b/s
Count of elements : 1377
Stream size : 45.2 KiB (0%)
Title : ENG_SRT
Language : English
Default : No
Forced : No

 



VIP 1-Part

[ Download ]



Free 1GB/Part

เปลี่ยนชื่อไฟล์ตามลำดับก่อนเเยกไฟล์ เช่น

Inferno.part1.rar
Inferno.part2.rar
Inferno.part3.rar

ไฟล์เสียสามารถซ่อมได้


Leave a Reply

Your email address will not be published. Required fields are marked *

}