Transformers: The Last Knight (2017) | ทรานส์ฟอร์เมอร์ส 5: อัศวินรุ่นสุดท้าย

แตกเรื่องจากแก่นเรื่องหลักของแฟรนไชส์ทรานฟอร์เมอร์ส และให้คำจำกัดความวีรบุรุษใหม่ มนุษย์และทรานส์ฟอร์เมอร์ส์อยู่ในสงคราม ออพติมัสจากไป การปกป้องอนาคตของพวกเราขึ้นอยู่กับความลับในอดีต ที่ซ่อนอยู่ในประวัติศาสตร์ทรานส์ฟอร์เมอร์สบนโลกใบนี้ More & Download »

Wonder Woman (2017) | วันเดอร์ วูแมน

กัล กาดอท (Gal Gadot) กลับมาสวมบท วันเดอร์วูแมน ในอภิมหาการผจญภัยจากฝีมือของผู้กำกับ แพ็ตตี้ เจนกินส์ (Patty Jenkins) โดยก่อนที่เธอจะเป็น วันเดอร์วูแมน เธอคือ ไดนาอ่า เจ้าหญิงแห่งอเมซอนที่ถูกฝึกฝนให้เป็นนักรบไร้เทียมทาน ซึ่งระหว่างเติบโตบนเกาะสวรรค์อันโดดเดี่ยว More & Download »

The Mummy (2017) | เดอะ มัมมี่

พบกับทอม ครูซ ใน เดอะ มัมมี่ เวอร์ชั่นใหม่ที่ตื่นตาตื่นใจ ของตำนานที่ดึงดูดใจผู้คนทั่วโลกมาตั้งแต่ยุคเริ่มต้นของอารยธรรม หลังจากถูกฝังในสุสานใต้ทะเลทรายที่ไม่มีวันได้รับการอภัย ราชินีในยุคโบราณ More & Download »

Baywatch (2017) | ไลฟ์การ์ดฮอตพิทักษ์หาด

เล่าวีรกรรมของไลฟ์การ์ดผู้เสียสละอย่าง มิทช์ บูแชนนอน (เดอะร็อค) ที่ต้องกระทบกระทั่งกับลูกทีมคนใหม่นามว่า แมตต์ โบรดี้ (แซค แอฟรอน) โดยพวกเขาต้องร่วมมือกันเพื่อหยุดยั้งอำนาจของอาชญากรท้องถิ่น ที่อาจเป็นภัยคุกคามต่อชายหาดแห่งนี้ในอนาคต!!! More & Download »

Pirates of the Caribbean : Dead Men Tell No Tales (2017) | สงครามแค้นโจรสลัดไร้ชีพ

มุ่งหน้าเปิดศึกแห่งมหาสมุทรบทใหม่โดยมี “ตรีศูลของโพไซดอน” อาวุธสำคัญของเทพแห่งกรีกเป็นศูนย์กลางของเรื่อง More & Download »

 

[ฝรั่ง]-[Mini-HD] Halo 4: Forward Unto Dawn (2012) | เฮโล 4 หน่วยฝึกรบมหากาฬ (1080p)-[พากย์ไทย 5.1 + อังกฤษ DTS]-[บรรยายไทย + อังกฤษ]

Master


 เรื่องย่อ 


      Halo 4: Forward Unto Dawn จากเกมส์แอคชั่นสุดฮิตที่สร้างยอดถล่มทลายอันดับ 1 ไปทั่วโลก เรื่องราวของหน่วยรบฮีโร่อวกาศวัยทีน (UNSC) ที่มาพร้อมอาวุธและชุดสุดไฮเทค สำหรับเปิดฉากการรบกับกองทัพปิศาจต่างดาวที่จะมารุกรานโลก HALO 4: FORWARD UNTO DAWN เต็มไปด้วยฉากแอคชั่นมันส์เร้าใจ เหมือนกับกำลังนั่งดู สตาร์เทรค ผสม จีไอโจ โดยตัวละครหลักของ FORWARD UNTO DAWN คือ โทมัส ลาสกี้ ทหารฝึกหัด หัวดื้อแต่เต็มไปด้วยพรสวรรค์ เขาได้รับแรงบันดาลใจจาก Master Chief ในการฝึกการจู่โจมและวิธีการรบต่าง จนกลายเป็นผู้บังคับบัญชายานรบ UNSC ที่กำลังเจอครั้งสำคัญกับศัตรูที่เขาไม่คาดคิดมาก่อน!

File Info

Format : Matroska
Format version : Version 4 / Version 2
File size : 2.34 GiB
Duration : 1h 27mn
Overall bit rate : 3 836 Kbps
Movie name : Halo.4.Forward.Unto.Dawn.2012.1080p.BrRip.x264_by _Finverr4Movie
Encoded date : UTC 2010-02-22 21:41:31
Writing application : mkvmerge v5.9.0 ( On The Loose ) built on Dec 9 2012 15:37:01
Writing library : libebml v1.3.0 + libmatroska v1.4.0

Video
ID : 1
Format : AVC
Format/Info : Advanced Video Codec
Format profile : High@L4.0
Format settings, CABAC : Yes
Format settings, ReFrames : 4 frames
Codec ID : V_MPEG4/ISO/AVC
Duration : 1h 27mn
Bit rate : 2 600 Kbps
Width : 1 920 pixels
Height : 800 pixels
Display aspect ratio : 2.40:1
Frame rate mode : Constant
Frame rate : 23.976 fps
Color space : YUV
Chroma subsampling : 4:2:0
Bit depth : 8 bits
Scan type : Progressive
Bits/(Pixel*Frame) : 0.071
Stream size : 1.60 GiB (68%)
Title : Halo.4.Forward.Unto.Dawn.2012.1080p.BrRip.x264_by _Finverr4Movie
Writing library : x264 core 120
Encoding settings : cabac=1 / ref=3 / deblock=1:0:0 / analyse=0x3:0x113 / me=umh / subme=9 / psy=1 / psy_rd=1.00:0.00 / mixed_ref=1 / me_range=16 / chroma_me=1 / trellis=1 / 8x8dct=1 / cqm=0 / deadzone=21,11 / fast_pskip=1 / chroma_qp_offset=-2 / threads=12 / sliced_threads=0 / nr=0 / decimate=1 / interlaced=0 / bluray_compat=0 / constrained_intra=0 / bframes=3 / b_pyramid=2 / b_adapt=2 / b_bias=0 / direct=1 / weightb=1 / open_gop=0 / weightp=2 / keyint=240 / keyint_min=24 / scenecut=40 / intra_refresh=0 / rc_lookahead=50 / rc=2pass / mbtree=1 / bitrate=2600 / ratetol=1.0 / qcomp=0.60 / qpmin=3 / qpmax=69 / qpstep=4 / cplxblur=20.0 / qblur=0.5 / ip_ratio=1.40 / aq=1:1.00
Language : English
Default : Yes
Forced : No
Color primaries : BT.709
Transfer characteristics : BT.709
Matrix coefficients : BT.709

Audio #1
ID : 2
Format : DTS
Format/Info : Digital Theater Systems
Mode : 16
Format settings, Endianness : Big
Codec ID : A_DTS
Duration : 1h 27mn
Bit rate mode : Constant
Bit rate : 755 Kbps
Channel(s) : 6 channels
Channel positions : Front: L C R, Side: L R, LFE
Sampling rate : 48.0 KHz
Bit depth : 24 bits
Compression mode : Lossy
Stream size : 471 MiB (20%)
Title : English DTS
Language : English
Default : No
Forced : No

Audio #2
ID : 3
Format : AC-3
Format/Info : Audio Coding 3
Mode extension : CM (complete main)
Format settings, Endianness : Big
Codec ID : A_AC3
Duration : 1h 27mn
Bit rate mode : Constant
Bit rate : 384 Kbps
Channel(s) : 6 channels
Channel positions : Front: L C R, Side: L R, LFE
Sampling rate : 48.0 KHz
Bit depth : 16 bits
Compression mode : Lossy
Stream size : 240 MiB (10%)
Title : Thai DVD Master
Language : Thai
Default : Yes
Forced : Yes

Text #1
ID : 4
Format : VobSub
Codec ID : S_VOBSUB
Codec ID/Info : The same subtitle format used on DVDs
Title : Thai 480p From DVD Master
Language : Thai
Default : No
Forced : No

Text #2
ID : 5
Format : VobSub
Codec ID : S_VOBSUB
Codec ID/Info : The same subtitle format used on DVDs
Title : Thai 1080p
Language : Thai
Default : Yes
Forced : Yes

Text #3
ID : 6
Format : VobSub
Codec ID : S_VOBSUB
Codec ID/Info : The same subtitle format used on DVDs
Title : Thai 1080p Yellow
Language : Thai
Default : No
Forced : No

Text #4
ID : 7
Format : VobSub
Codec ID : S_VOBSUB
Codec ID/Info : The same subtitle format used on DVDs
Title : Thai 1080p Out
Language : Thai
Default : No
Forced : No

Text #5
ID : 8
Format : PGS
Codec ID : S_HDMV/PGS
Codec ID/Info : The same subtitle format used on BDs/HD-DVDs
Title : Thai PGS
Language : Thai
Default : No
Forced : No

Text #6
ID : 9
Format : PGS
Codec ID : S_HDMV/PGS
Codec ID/Info : The same subtitle format used on BDs/HD-DVDs
Title : Thai PGS Yellow
Language : Thai
Default : No
Forced : No

Text #7
ID : 10
Format : PGS
Codec ID : S_HDMV/PGS
Codec ID/Info : The same subtitle format used on BDs/HD-DVDs
Title : Thai PGS Out
Language : Thai
Default : No
Forced : No

Text #8
ID : 11
Format : VobSub
Codec ID : S_VOBSUB
Codec ID/Info : The same subtitle format used on DVDs
Title : English
Language : English
Default : No
Forced : No

 



VIP 1-Part

[ Download ]



Free 1GB/Part

เปลี่ยนชื่อไฟล์ตามลำดับก่อนเเยกไฟล์ เช่น

Halo.4.part1.rar
Halo.4.part2.rar
Halo.4.part3.rar

ไฟล์เสียสามารถซ่อมได้


Leave a Reply

Your email address will not be published. Required fields are marked *

}