Transformers: The Last Knight (2017) | ทรานส์ฟอร์เมอร์ส 5: อัศวินรุ่นสุดท้าย

แตกเรื่องจากแก่นเรื่องหลักของแฟรนไชส์ทรานฟอร์เมอร์ส และให้คำจำกัดความวีรบุรุษใหม่ มนุษย์และทรานส์ฟอร์เมอร์ส์อยู่ในสงคราม ออพติมัสจากไป การปกป้องอนาคตของพวกเราขึ้นอยู่กับความลับในอดีต ที่ซ่อนอยู่ในประวัติศาสตร์ทรานส์ฟอร์เมอร์สบนโลกใบนี้ More & Download »

Wonder Woman (2017) | วันเดอร์ วูแมน

กัล กาดอท (Gal Gadot) กลับมาสวมบท วันเดอร์วูแมน ในอภิมหาการผจญภัยจากฝีมือของผู้กำกับ แพ็ตตี้ เจนกินส์ (Patty Jenkins) โดยก่อนที่เธอจะเป็น วันเดอร์วูแมน เธอคือ ไดนาอ่า เจ้าหญิงแห่งอเมซอนที่ถูกฝึกฝนให้เป็นนักรบไร้เทียมทาน ซึ่งระหว่างเติบโตบนเกาะสวรรค์อันโดดเดี่ยว More & Download »

The Mummy (2017) | เดอะ มัมมี่

พบกับทอม ครูซ ใน เดอะ มัมมี่ เวอร์ชั่นใหม่ที่ตื่นตาตื่นใจ ของตำนานที่ดึงดูดใจผู้คนทั่วโลกมาตั้งแต่ยุคเริ่มต้นของอารยธรรม หลังจากถูกฝังในสุสานใต้ทะเลทรายที่ไม่มีวันได้รับการอภัย ราชินีในยุคโบราณ More & Download »

Baywatch (2017) | ไลฟ์การ์ดฮอตพิทักษ์หาด

เล่าวีรกรรมของไลฟ์การ์ดผู้เสียสละอย่าง มิทช์ บูแชนนอน (เดอะร็อค) ที่ต้องกระทบกระทั่งกับลูกทีมคนใหม่นามว่า แมตต์ โบรดี้ (แซค แอฟรอน) โดยพวกเขาต้องร่วมมือกันเพื่อหยุดยั้งอำนาจของอาชญากรท้องถิ่น ที่อาจเป็นภัยคุกคามต่อชายหาดแห่งนี้ในอนาคต!!! More & Download »

Pirates of the Caribbean : Dead Men Tell No Tales (2017) | สงครามแค้นโจรสลัดไร้ชีพ

มุ่งหน้าเปิดศึกแห่งมหาสมุทรบทใหม่โดยมี “ตรีศูลของโพไซดอน” อาวุธสำคัญของเทพแห่งกรีกเป็นศูนย์กลางของเรื่อง More & Download »

 

[ฝรั่ง]-[Super Mini-HD] The Walking Dead Season 7 Episode #08 : Hearts Still Beating (TV Series 2016-2017) | เดอะวอกกิ้งเดส ซีรี่ย์ซอมบี้ ซีซั่น 7 – ตอนที่ 8 (จบครึ่งเเรก) (1080p)-[พากย์อังกฤษ 5.1]-[บรรยายไทย + อังกฤษ]

Soundtrack


 เรื่องย่อ 


      The Walking Dead Season 7 Episode #08 : Hearts Still Beating การมาเยือนอเล็กซานเดรียเเบบไม่เต็มใจของนีเเกน พร้อมกับสมุนคนอื่นๆ ของเขาพร้อมเวลาเก็บส่วยเร็วขึ้น วันนัดพบเร็วขึ้น เเละจะเกิดบางสิ่งที่อาจเหนือความควบคุมของเขาเอง

File Info

General
Complete name : The.Walking.Dead.S07E08.Hearts.Still.Beating.1080p.WEB-DL.AC3.x264_Finverr4Movie.mkv
Format : Matroska
Format version : Version 4 / Version 2
File size : 2.42 GiB
Duration : 1h 0mn
Overall bit rate : 5 690 Kbps
Movie name : The.Walking.Dead.S07E08.Hearts.Still.Beating.1080p.WEB-DL.AC3.x264_Finverr4Movie
Encoded date : UTC 2016-12-12 13:04:51
Writing application : mkvmerge v9.5.0 ( Quiet Fire ) 64bit
Writing library : libebml v1.3.4 + libmatroska v1.4.5

Video
ID : 1
Format : AVC
Format/Info : Advanced Video Codec
Format profile : High@L4
Format settings, CABAC : Yes
Format settings, ReFrames : 4 frames
Codec ID : V_MPEG4/ISO/AVC
Duration : 1h 0mn
Bit rate : 5 193 Kbps
Width : 1 916 pixels
Height : 1 076 pixels
Display aspect ratio : 16:9
Frame rate mode : Constant
Frame rate : 23.976 fps
Color space : YUV
Chroma subsampling : 4:2:0
Bit depth : 8 bits
Scan type : Progressive
Bits/(Pixel*Frame) : 0.105
Stream size : 2.21 GiB (91%)
Title : The.Walking.Dead.S07E08.Hearts.Still.Beating.1080p.WEB-DL.AC3.x264_Finverr4Movie
Language : English
Default : Yes
Forced : No
Color range : Limited
Color primaries : BT.709
Transfer characteristics : BT.709
Matrix coefficients : BT.709

Audio
ID : 2
Format : AC-3
Format/Info : Audio Coding 3
Mode extension : CM (complete main)
Format settings, Endianness : Big
Codec ID : A_AC3
Duration : 1h 0mn
Bit rate mode : Constant
Bit rate : 384 Kbps
Channel(s) : 6 channels
Channel positions : Front: L C R, Side: L R, LFE
Sampling rate : 48.0 KHz
Bit depth : 16 bits
Compression mode : Lossy
Stream size : 167 MiB (7%)
Title : [ENGLISH AC-3 5.1@384kbps]
Language : English
Default : Yes
Forced : No

Text #1
ID : 3
Format : VobSub
Muxing mode : zlib
Codec ID : S_VOBSUB
Codec ID/Info : Picture based subtitle format used on DVDs
Title : [THAI 720P]
Language : Thai
Default : Yes
Forced : No

Text #2
ID : 4
Format : VobSub
Muxing mode : zlib
Codec ID : S_VOBSUB
Codec ID/Info : Picture based subtitle format used on DVDs
Title : [THAI 1080P]
Language : Thai
Default : No
Forced : No

Text #3
ID : 5
Format : PGS
Muxing mode : zlib
Codec ID : S_HDMV/PGS
Codec ID/Info : Picture based subtitle format used on BDs/HD-DVDs
Title : [THAI PGS]
Language : Thai
Default : No
Forced : No

Text #4
ID : 6
Format : PGS
Muxing mode : zlib
Codec ID : S_HDMV/PGS
Codec ID/Info : Picture based subtitle format used on BDs/HD-DVDs
Title : [THAI PGS YELLOW]
Language : Thai
Default : No
Forced : No

Text #5
ID : 7
Format : PGS
Muxing mode : zlib
Codec ID : S_HDMV/PGS
Codec ID/Info : Picture based subtitle format used on BDs/HD-DVDs
Title : [ENGLISH PGS]
Language : English
Default : No
Forced : No

 



VIP 1-Part

[ Download ]



Free 1GB/Part

เปลี่ยนชื่อไฟล์ตามลำดับก่อนเเยกไฟล์ เช่น

The.Walking.Dead.Season.7.Episode.#08.part1.rar
The.Walking.Dead.Season.7.Episode.#08.part2.rar
The.Walking.Dead.Season.7.Episode.#08.part3.rar

ไฟล์เสียสามารถซ่อมได้


Leave a Reply

Your email address will not be published. Required fields are marked *

}