Train To Busan (2016) | ด่วนนรกซอมบี้คลั่ง

เล่าถึงเรื่องราวสุดระทึกเมื่อ ซอกวู (รับบทโดย กงยู) และลูกสาว ซูอา (รับบทโดย อาน คิมซู) กำลังขึ้นขบวนรถไฟเคทีเอ็กซ์ที่จะพาทั้งสองเดินทางจากกรุงโซลไปยังเมืองปูซานเพื่อเยี่ยมภรรยาเก่าที่ไม่ได้พบกันมานาน แต่ทันทีที่รถไฟกำลังจะเคลื่อนออกจากชานชาลา กลับเกิดเหตุการณ์ที่ทำให้ผู้โดยสารทั้งขบวนต้องช็อก More & Download »

Mechanic 2: Resurrection (2016) | โคตรเพชฌฆาต แค้นข้ามโลก

เจสัน สเตแธม กลับมาอีกครั้งในบทมือสังหาร อาเธอร์ บิชอพ ที่ถูกบีบให้กลับสู่เส้นทางนักฆ่าหลังจากวางมือไปแล้ว โดยเขาต้องทำภารกิจสังหารบุคคลที่อันตรายที่สุดของโลก เพื่อแลกกับชีวิตของคนรักที่ถูกลักพาตัวไป!!! More & Download »

Robinson Crusoe (2016) | โรบินสัน ครูโซ ผจญภัยเกาะมหาสนุก

บนเกาะสวรรค์เล็กๆ ทิวสเดย์ นกแก้วแสนรู้กับเพื่อนๆฝันจะได้ผจญภัยค้นหาโลกกว้าง จนเมื่อพายุโหมเข้าเกาะมันได้พาสิ่งมีชีวิตที่แปลกตาสำหรับทิวสเดย์เข้ามาด้วย นั่นคือมนุษย์ที่ชื่อ โรบินสัน ครูโซ ทิวสเดย์รู้เลยว่าโรบินสันจะเป็นตั๋วเบิกทางสู่โลกภายนอก More & Download »

Sully (2016) | ซัลลี่ ปาฎิหาริย์ที่แม่น้ำฮัดสัน

สร้างขึ้นจากเหตุการณ์จริงกับเรื่องราวของ กัปตัน เชสลีย์ บี. “ซัลลี่” ซัลเลนเบอร์เกอร์ (รับบทโดย ทอม แฮงค์ส) ที่เคยสร้างปาฏิหาริย์ในการนำเครื่องบิน US Airways ไฟท์ 1549 ลงจอดกลางแม่น้ำฮัตสันหลังจากเกิดเหตุการณ์ที่ไม่คาดฝันเมื่อเครื่องบินลำนั้นต้องปะทะกับฝูงนกอย่างรุนแรง More & Download »

Pete’s Dragon (2016) | พีทกับมังกรมหัศจรรย์

พีทกับมังกรมหัศจรรย์ กว่าหลายปีที่คุณมิชชั่ม (โรเบิร์ต เรดฟอร์ด) ชายแก่นักแกะสลักไม้ สร้างความสนุกสนานให้เด็กๆด้วยเรื่องเล่าเกี่ยวกับมังกรร้ายที่อาศัยอยู่ในป่าลึกทางตะวันตกเฉียงเหนือของแปซิฟิก More & Download »

 

[ไทย]-[Mini-HD] Fanday (2016) | แฟนเดย์..แฟนกันแค่วันเดียว (1080p)-[พากย์ไทย 5.1]-[บรรยายไทย]

Master


 เรื่องย่อ 


      Fanday หนัง Fanday หรือชื่อไทยว่า แฟนเดย์..แฟนกันแค่วันเดียว เด่นชัย (เต๋อ ฉันทวิชช์ ธนะเสวี) เจ้าหน้าที่ไอทีสุดเนิร์ดประจาออฟฟิศ วัย 30 ผู้จะมีตัวตนในสายตาพนักงานคนอื่นแค่เวลาอุปกรณ์คอมพิวเตอร์เสีย ในชั่วโมงทางานที่แสนเร่งรีบไม่มีใครสนใจแม้แต่จะจาชื่อของเด่นชัย จนเขาแอบน้อยใจอยู่บ่อยๆ จนกระทั่งวันที่เขาได้ไปซ่อมปรินเตอร์ให้ “นุ้ย” (มิว นิษฐา จิรยั่งยืน) มาร์เก็ตติ้งสาวคนสวยผู้จดจำชื่อจริงของเขาได้ เด่นชัยตกหลุมรักความน่ารักและจริงใจของนุ้ยที่ทาให้เขารู้สึกเหมือนมีตัวตนขึ้นมา แต่ก็ทาได้เพียงเฝ้าเก็บรายละเอียดและดูแลเธออยู่ห่างๆ เพราะรู้ดีว่าหมาอย่างเขาคงได้แค่แหงนมองเครื่องบินแต่แล้ว เมื่อบริษัทของเด่นชัยพาพนักงานไปเที่ยวเอาท์ติ้งยังสกีรีสอร์ทที่ฮอกไกโด เด่นชัยได้ขอพรกับระฆังแห่งความรักของรีสอร์ทให้เขาได้เป็นแฟนกับนุ้ยแค่วันเดียวก็ยังดี โชคชะตาเล่นตลกเมื่อนุ้ยประสบอุบัติเหตุจากสกีจนหมดสติ พอนุ้ยฟื้นก็กลับมีอาการ โรคความจาเสื่อมชั่วคราว ที่เรียกกันว่าโรค TGA ซึ่งเป็นโรคความจาเสื่อมที่จะมีอาการอยู่เพียงแค่ 1 วันเท่านั้น…เด่นชัยคิดว่านี่เป็นโอกาสเดียวที่คนอย่างเขาจะได้ใกล้ชิดกับนุ้ย เขาตัดสินใจสวมรอยหลอกนุ้ยว่าทั้งสองเป็นแฟนกันและอยู่เที่ยวต่อกันเพียงสองคน เด่นชัยตั้งใจว่าจะพานุ้ยไปเที่ยวในทุกๆ ที่ที่เธออยากไปในฮอกไกโด ใช้เวลาสุดพิเศษของเขากับเธอในฐานะแฟนแม้ว่ามันจะเป็นการเป็นแฟนกันเพียงแค่วันเดียวก็ตาม…

File Info

General
Unique ID : 245765352108641883499968684380041605066 (0xB8E4AF622EA0ECC7BFD098F9DEA56FCA)
Complete name : Fanday 2016 DVDRip 1080p-HD9 Xvid-ThaiS_Finverr4Movie.com.mkv
Format : Matroska
Format version : Version 2
File size : 4.29 GiB
Duration : 2h 9mn
Overall bit rate : 4 733 Kbps
Movie name : Fanday [2016] [DVDRip 720p]
Encoded date : UTC 2016-12-02 19:04:05
Writing application : mkvmerge v3.4.0 (‘Rapunzel’) built on May 15 2010 09:38:20
Writing library : libebml v0.8.0 + libmatroska v0.9.0

Video
ID : 1
Format : MPEG-4 Visual
Format profile : Advanced Simple@L4
Format settings, BVOP : Yes
Format settings, QPel : No
Format settings, GMC : No warppoints
Format settings, Matrix : Default (H.263)
Codec ID : V_MS/VFW/FOURCC / DIVX
Codec ID/Info : Project Mayo
Codec ID/Hint : DivX 4
Duration : 2h 9mn
Bit rate : 4 191 Kbps
Width : 1 920 pixels
Height : 816 pixels
Display aspect ratio : 2.35:1
Frame rate mode : Constant
Frame rate : 25.000 fps
Color space : YUV
Chroma subsampling : 4:2:0
Bit depth : 8 bits
Scan type : Progressive
Compression mode : Lossy
Bits/(Pixel*Frame) : 0.107
Stream size : 3.80 GiB (89%)
Writing library : XviD 64
Default : Yes
Forced : No

Audio
ID : 2
Format : AC-3
Format/Info : Audio Coding 3
Mode extension : CM (complete main)
Format settings, Endianness : Big
Codec ID : A_AC3
Duration : 2h 9mn
Bit rate mode : Constant
Bit rate : 448 Kbps
Channel(s) : 6 channels
Channel positions : Front: L C R, Side: L R, LFE
Sampling rate : 48.0 KHz
Bit depth : 16 bits
Compression mode : Lossy
Stream size : 416 MiB (9%)
Language : Thai
Default : No
Forced : Yes

Text
ID : 3
Format : VobSub
Muxing mode : zlib
Codec ID : S_VOBSUB
Codec ID/Info : The same subtitle format used on DVDs
Language : Thai
Default : No
Forced : Yes

 



VIP 1-Part

[ Download ]



Free 1GB/Part

เปลี่ยนชื่อไฟล์ตามลำดับก่อนเเยกไฟล์ เช่น

Fanday.part1.rar
Fanday.part2.rar
Fanday.part3.rar

ไฟล์เสียสามารถซ่อมได้


Leave a Reply

Your email address will not be published. Required fields are marked *