Kong: Skull Island (2017) | คอง: มหาภัยเกาะกะโหลก

จากทีมผู้อำนวยการสร้าง Godzilla นำตำนานความเป็นมาของสัตว์ประหลาดที่ทรงพลังที่สุดอีกตัวหนึ่งมาสร้างสรรค์ใหม่ การผจญภัยอันแปลกใหม่ชวนติดตามจากผู้กำกับจอร์แดน วอกท์-โรเบิร์ตส์ เรื่องราวของทีมนักวิทยาศาสตร์ ทหาร และนักผจญภัย ที่มารวมตัวกันเพื่อสำรวจเกาะในตำนานกลางมหาสมุทรแปซิฟิกซึ่งไม่เคยมีใครสำรวจมาก่อน More & Download »

Resident Evil:Vendetta (2017) | ล้างบางเชื้อคลั่ง/สงครามแค้นแพร่พันธุ์ไวรัส

หน่วยงาน BSAA “คริส เรดฟิลด์” ได้ทำการสืบสวนหาสาเหตุการแพร่กระจายไวรัสชนิดใหม่ ที่ทำให้คนที่ตายไปแล้วคืนชีพขึ้นมาและบ้าคลั่งทำร้า ยคนอื่น โดยมีเบื้องหลังคือพ่อค้าอาวุธชีวภาพ “เกลน แอรีส” ชายผู้หมายจะครองตลาดค้าอาวุธชีวภาพด้วยการเก็บตกเหล ่าเชื้อไวรัสของบ.ไทรเซล และอัมเบรลล่า More & Download »

John Wick: Chapter 2 (2017) | จอห์น วิค: แรงกว่านรก 2

คีอานู รีฟส์ กลับมารับบทเดิมในภาคต่อของหนังแอ็คชั่นยอดฮิตแห่งปี 2014 John Wick มือสังหารผู้เป็นตำนานที่ถูกบีบให้กลับมาทำงานอีกครั้งหลังจากเกษียณตัวเองไป เพราะอดีตเพื่อนร่วมงานวางแผนเข้าควบคุมองค์กรมือสังหารลับข้ามชาติ ด้วยความผูกพันธ์ดุจพี่น้องต่างสายเลือด จอห์น ให้คำมั่นว่าจะช่วย เขาเดินทางไปกรุงโรมที่ซึ่งเขาต้องเผชิญกับบรรดานักฆ่าที่อันตรายที่สุดในโลก!!! More & Download »

Beauty And The Beast (2017) | โฉมงามกับเจ้าชายอสูร

นำเรื่องราวอมตะจากอนิเมชั่นสุดคลาสสิคกลับมาเล่าขานใหม่ในแบบร่วมสมัย ด้วยเพลงประกอบดั้งเดิม พร้อมเพลงใหม่ๆอีกมากมาย ภาพยนตร์เรื่องนี้เล่าเรื่องราวของการเดินทางอันแสนมหัศจรรย์ของเบลล์ สาวน้อยผู้เลอโฉม ที่ถูกคุมขังอยู่ในปราสาทของเจ้าชายอสูร ถึงแม้จะกลัว แต่เธอก็ผูกมิตรกับคนงานของปราสาท และมองข้ามรูปโฉมอันน่ากลัวของเจ้าชายอสูร เพื่อให้เห็นถึงจิตใจที่ดีงามที่ซ่อนอยู่ของเขา More & Download »

 

[ฝรั่ง]-[Mini-HD] Don’t Breathe (2016) | ลมหายใจสั่งตาย (1080p)-[พากย์ไทย 5.1 + อังกฤษ DTS]-[บรรยายไทย + อังกฤษ]

Master


 เรื่องย่อ 


      Don’t Breathe ความตื่นเต้นที่จะทำให้คุณแทบลืมหายใจเมื่อวัยรุ่นกลุ่มหนึ่ง วางแผนเพื่อบุกเข้าไปปล้นบ้านของชายแก่ตาบอดภาพที่พวกเขาคิดว่าจะทำอะไรต่างๆนั้น ที่นึกว่ามันจะเป็นเรื่องง่ายๆ เพราะชายแก่ตาบอด ที่อาศัยอยู่ในบ้านคนเดียว น่าจะไม่ใช่เรื่องใหญ่ และก็ไม่น่าจะมีพิษมีภัยอะไร แต่พวกเขานั้นคิดผิดซะแล้วพวกเขากลับต้องพบกับความสะพรึงอันแสนน่ากลัว ที่มันรอพวกเขาอยู่ข้างในเมื่อพวกเขากลับถูกล่าเสียเอง!

File Info

General
Unique ID : 240650821371313588704883387378022990007 (0xB50BA98CA0606AF1834BAA1CCD9FC0B7)
Complete name : Don_t.Breathe.2016.1080p.SuperHQ.DTS.x264.BD_Finverr4Movie.com.mkv
Format : Matroska
Format version : Version 4 / Version 2
File size : 4.03 GiB
Duration : 1h 28mn
Overall bit rate : 6 517 Kbps
Movie name : www.facebook.com/Firsthidef
Encoded date : UTC 2016-12-01 20:13:37
Writing application : mkvmerge v9.5.0 (‘Quiet Fire’) 32bit
Writing library : libebml v1.3.4 + libmatroska v1.4.5

Video
ID : 1
Format : AVC
Format/Info : Advanced Video Codec
Format profile : High@L4.1
Format settings, CABAC : Yes
Format settings, ReFrames : 4 frames
Codec ID : V_MPEG4/ISO/AVC
Duration : 1h 28mn
Bit rate : 5 079 Kbps
Width : 1 920 pixels
Height : 800 pixels
Display aspect ratio : 2.40:1
Frame rate mode : Constant
Frame rate : 23.976 fps
Color space : YUV
Chroma subsampling : 4:2:0
Bit depth : 8 bits
Scan type : Progressive
Bits/(Pixel*Frame) : 0.138
Stream size : 3.09 GiB (77%)
Title : Don’t.Breathe.2016.1080p.SuperHQ.DTS.x264.BD-Zakky
Writing library : x264 core 146 r2538 121396c
Encoding settings : cabac=1 / ref=4 / deblock=1:-3:-3 / analyse=0x3:0x113 / me=umh / subme=11 / psy=1 / psy_rd=1.00:0.00 / mixed_ref=1 / me_range=64 / chroma_me=1 / trellis=2 / 8x8dct=1 / cqm=0 / deadzone=21,11 / fast_pskip=0 / chroma_qp_offset=-2 / threads=6 / lookahead_threads=1 / sliced_threads=0 / nr=0 / decimate=1 / interlaced=0 / bluray_compat=0 / constrained_intra=0 / bframes=4 / b_pyramid=2 / b_adapt=2 / b_bias=0 / direct=3 / weightb=1 / open_gop=0 / weightp=1 / keyint=250 / keyint_min=23 / scenecut=40 / intra_refresh=0 / rc_lookahead=120 / rc=2pass / mbtree=1 / bitrate=5079 / ratetol=1.0 / qcomp=0.60 / qpmin=0 / qpmax=69 / qpstep=4 / cplxblur=20.0 / qblur=0.5 / vbv_maxrate=99999 / vbv_bufsize=99999 / nal_hrd=none / filler=0 / ip_ratio=1.40 / aq=1:1.00
Language : English
Default : Yes
Forced : Yes

Audio #1
ID : 2
Format : AC-3
Format/Info : Audio Coding 3
Mode extension : CM (complete main)
Format settings, Endianness : Big
Codec ID : A_AC3
Duration : 1h 28mn
Bit rate mode : Constant
Bit rate : 640 Kbps
Channel(s) : 6 channels
Channel positions : Front: L C R, Side: L R, LFE
Sampling rate : 48.0 KHz
Bit depth : 16 bits
Compression mode : Lossy
Stream size : 405 MiB (10%)
Title : TH AC3 BD MASTER ZAKKY
Language : Thai
Default : Yes
Forced : Yes

Audio #2
ID : 3
Format : DTS
Format/Info : Digital Theater Systems
Codec ID : A_DTS
Duration : 1h 28mn
Bit rate mode : Constant
Bit rate : 755 Kbps
Channel(s) : 6 channels
Channel positions : Front: L C R, Side: L R, LFE
Sampling rate : 48.0 KHz
Bit depth : 24 bits
Compression mode : Lossy
Stream size : 478 MiB (12%)
Title : EN DTS ZAKKY
Language : English
Default : No
Forced : No

Text #1
ID : 4
Format : VobSub
Codec ID : S_VOBSUB
Codec ID/Info : The same subtitle format used on DVDs
Title : TH 1080P ZAKKY
Language : Thai
Default : No
Forced : No

Text #2
ID : 5
Format : VobSub
Codec ID : S_VOBSUB
Codec ID/Info : The same subtitle format used on DVDs
Title : TH 1080P YELLOW ZAKKY
Language : Thai
Default : No
Forced : No

Text #3
ID : 6
Format : VobSub
Codec ID : S_VOBSUB
Codec ID/Info : The same subtitle format used on DVDs
Title : TH 1080P UNDER ZAKKY
Language : Thai
Default : No
Forced : No

Text #4
ID : 7
Format : VobSub
Codec ID : S_VOBSUB
Codec ID/Info : The same subtitle format used on DVDs
Title : TH 480P ZAKKY
Language : Thai
Default : No
Forced : No

Text #5
ID : 8
Format : PGS
Codec ID : S_HDMV/PGS
Codec ID/Info : The same subtitle format used on BDs/HD-DVDs
Title : TH BD MASTER ZAKKY
Language : Thai
Default : Yes
Forced : Yes

Text #6
ID : 9
Format : PGS
Codec ID : S_HDMV/PGS
Codec ID/Info : The same subtitle format used on BDs/HD-DVDs
Title : TH BD UNDER ZAKKY
Language : Thai
Default : No
Forced : No

Text #7
ID : 10
Format : PGS
Codec ID : S_HDMV/PGS
Codec ID/Info : The same subtitle format used on BDs/HD-DVDs
Title : EN BD ZAKKY
Language : English
Default : No
Forced : No

Menu
00:00:00.000 : en:00:00:00.000
00:03:33.463 : en:00:03:33.463
00:08:02.732 : en:00:08:02.732
00:14:05.178 : en:00:14:05.178
00:19:45.851 : en:00:19:45.851
00:24:50.030 : en:00:24:50.030
00:28:29.541 : en:00:28:29.541
00:33:33.094 : en:00:33:33.094
00:36:51.418 : en:00:36:51.418
00:41:04.295 : en:00:41:04.295
00:45:48.245 : en:00:45:48.245
00:51:52.401 : en:00:51:52.401
00:57:36.662 : en:00:57:36.662
01:03:46.239 : en:01:03:46.239
01:13:41.917 : en:01:13:41.917
01:21:54.701 : en:01:21:54.701

 



VIP 1-Part

[ Download ]



Free 1GB/Part

เปลี่ยนชื่อไฟล์ตามลำดับก่อนเเยกไฟล์ เช่น

Don't.Breathe.part1.rar
Don't.Breathe.part2.rar
Don't.Breathe.part3.rar

ไฟล์เสียสามารถซ่อมได้


Leave a Reply

Your email address will not be published. Required fields are marked *

}