Transformers: The Last Knight (2017) | ทรานส์ฟอร์เมอร์ส 5: อัศวินรุ่นสุดท้าย

แตกเรื่องจากแก่นเรื่องหลักของแฟรนไชส์ทรานฟอร์เมอร์ส และให้คำจำกัดความวีรบุรุษใหม่ มนุษย์และทรานส์ฟอร์เมอร์ส์อยู่ในสงคราม ออพติมัสจากไป การปกป้องอนาคตของพวกเราขึ้นอยู่กับความลับในอดีต ที่ซ่อนอยู่ในประวัติศาสตร์ทรานส์ฟอร์เมอร์สบนโลกใบนี้ More & Download »

Wonder Woman (2017) | วันเดอร์ วูแมน

กัล กาดอท (Gal Gadot) กลับมาสวมบท วันเดอร์วูแมน ในอภิมหาการผจญภัยจากฝีมือของผู้กำกับ แพ็ตตี้ เจนกินส์ (Patty Jenkins) โดยก่อนที่เธอจะเป็น วันเดอร์วูแมน เธอคือ ไดนาอ่า เจ้าหญิงแห่งอเมซอนที่ถูกฝึกฝนให้เป็นนักรบไร้เทียมทาน ซึ่งระหว่างเติบโตบนเกาะสวรรค์อันโดดเดี่ยว More & Download »

The Mummy (2017) | เดอะ มัมมี่

พบกับทอม ครูซ ใน เดอะ มัมมี่ เวอร์ชั่นใหม่ที่ตื่นตาตื่นใจ ของตำนานที่ดึงดูดใจผู้คนทั่วโลกมาตั้งแต่ยุคเริ่มต้นของอารยธรรม หลังจากถูกฝังในสุสานใต้ทะเลทรายที่ไม่มีวันได้รับการอภัย ราชินีในยุคโบราณ More & Download »

Baywatch (2017) | ไลฟ์การ์ดฮอตพิทักษ์หาด

เล่าวีรกรรมของไลฟ์การ์ดผู้เสียสละอย่าง มิทช์ บูแชนนอน (เดอะร็อค) ที่ต้องกระทบกระทั่งกับลูกทีมคนใหม่นามว่า แมตต์ โบรดี้ (แซค แอฟรอน) โดยพวกเขาต้องร่วมมือกันเพื่อหยุดยั้งอำนาจของอาชญากรท้องถิ่น ที่อาจเป็นภัยคุกคามต่อชายหาดแห่งนี้ในอนาคต!!! More & Download »

Pirates of the Caribbean : Dead Men Tell No Tales (2017) | สงครามแค้นโจรสลัดไร้ชีพ

มุ่งหน้าเปิดศึกแห่งมหาสมุทรบทใหม่โดยมี “ตรีศูลของโพไซดอน” อาวุธสำคัญของเทพแห่งกรีกเป็นศูนย์กลางของเรื่อง More & Download »

 

[ฝรั่ง]-[Zoom] Fantastic Beasts and Where to Find Them (2016) | สัตว์มหัศจรรย์และถิ่นที่อยู่ (HD-CAM)-[พากย์ไทยโรง + อังกฤษ 2.0]

Zoom


 เรื่องย่อ 


      Fantastic Beasts and Where to Find Them ตามติดการเดินทางของ นิวต์ สคาแมนเดอร์ ศาสตราจารย์ด้านสัตว์วิเศษที่ออกเดินทางไปทั่วโลกเพื ่อเขียนตำราที่นักเรียนชั้นปี 1 ของฮอกวอตส์ทุกคนต้องอ่าน โดยเมื่อเขาเดินทางมาถึงนิวยอร์กในปี 1926 กระเป๋าเดินทางของเขากลับถูกโนมาจ (มักเกิ้ล) นามว่า จาค็อบ หยิบสลับไป เป็นเหตุให้สัตว์วิเศษที่อยู่ในนั้นถูกปล่อยออกมา จนอาจสร้างความวุ่นวายให้กับโลกมนุษย์และโลกพ่อมด

File Info

General
Unique ID : 198533091317093895749925464397647589288 (0x955C15221FA7E89B95545D92F8022FA8)
Complete name : Fantastic Beasts and Where to Find Them (2016) สัตว์มหัศจรรย์และถิ่นที่อยู่Fantastic.Beast.and.Where.To.Find.Them.2016.HD-TS.x264.AC3.THRONG_Finverr4Movie.mkv
Format : Matroska
Format version : Version 4 / Version 2
File size : 2.07 GiB
Duration : 2h 4mn
Overall bit rate mode : Variable
Overall bit rate : 2 393 Kbps
Movie name : Fantastic.Beast.and.Where.To.Find.Them.2016.HD-TS.x264.AC3.THRONG_ hdsiambit.tv.siambit.tv.net
Encoded date : UTC 2016-12-01 03:09:19
Writing application : mkvmerge v9.5.0 ( Quiet Fire ) 32bit
Writing library : libebml v1.3.4 + libmatroska v1.4.5
DURATION : 02:03:59.830000000
NUMBER_OF_FRAMES : 284806
NUMBER_OF_BYTES : 178555925
_STATISTICS_WRITING_APP : mkvmerge v9.5.0 ( Quiet Fire ) 32bit
_STATISTICS_WRITING_DATE_UTC : 2016-12-01 03:09:19
_STATISTICS_TAGS : BPS DURATION NUMBER_OF_FRAMES NUMBER_OF_BYTES

Video
ID : 1
Format : AVC
Format/Info : Advanced Video Codec
Format profile : High@L4.2
Format settings, CABAC : Yes
Format settings, ReFrames : 4 frames
Codec ID : V_MPEG4/ISO/AVC
Duration : 2h 4mn
Bit rate mode : Variable
Bit rate : 1 961 Kbps
Maximum bit rate : 62.5 Mbps
Width : 720 pixels
Height : 320 pixels
Display aspect ratio : 2.25:1
Frame rate mode : Constant
Frame rate : 30.000 fps
Color space : YUV
Chroma subsampling : 4:2:0
Bit depth : 8 bits
Scan type : Progressive
Bits/(Pixel*Frame) : 0.284
Stream size : 1.70 GiB (82%)
Title : Fantastic.Beast.and.Where.To.Find.Them.2016.HD-TS.x264.AC3.THRONG_ hdsiambit.tv.siambit.tv.net
Language : English
Default : Yes
Forced : Yes
Color primaries : BT.709
Transfer characteristics : BT.709
Matrix coefficients : BT.709
Color range : Full

Audio #1
ID : 2
Format : AC-3
Format/Info : Audio Coding 3
Mode extension : CM (complete main)
Format settings, Endianness : Big
Codec ID : A_AC3
Duration : 2h 4mn
Bit rate mode : Constant
Bit rate : 192 Kbps
Channel(s) : 2 channels
Channel positions : Front: L R
Sampling rate : 48.0 KHz
Bit depth : 16 bits
Compression mode : Lossy
Stream size : 170 MiB (8%)
Title : TH AC3 THRONGBy hdsiambit.tv.siambit.tv.net
Language : Thai
Default : Yes
Forced : Yes

Audio #2
ID : 3
Format : MPEG Audio
Format version : Version 1
Format profile : Layer 3
Codec ID : A_MPEG/L3
Codec ID/Hint : MP3
Duration : 2h 4mn
Bit rate mode : Constant
Bit rate : 192 Kbps
Channel(s) : 2 channels
Sampling rate : 44.1 KHz
Compression mode : Lossy
Delay relative to video : 101ms
Stream size : 170 MiB (8%)
Title : EN MP3 By hdsiambit.tv.siambit.tv.net
Writing library : LAME1qc kIถ Œ๗จ / (
Language : English
Default : No
Forced : No

 



VIP 1-Part

[ Download ]



Free 1GB/Part

เปลี่ยนชื่อไฟล์ตามลำดับก่อนเเยกไฟล์ เช่น

Fantastic.Beasts.and.Where.to.Find.Them.part1.rar
Fantastic.Beasts.and.Where.to.Find.Them.part2.rar
Fantastic.Beasts.and.Where.to.Find.Them.part3.rar

ไฟล์เสียสามารถซ่อมได้


Leave a Reply

Your email address will not be published. Required fields are marked *

}