Train To Busan (2016) | ด่วนนรกซอมบี้คลั่ง

เล่าถึงเรื่องราวสุดระทึกเมื่อ ซอกวู (รับบทโดย กงยู) และลูกสาว ซูอา (รับบทโดย อาน คิมซู) กำลังขึ้นขบวนรถไฟเคทีเอ็กซ์ที่จะพาทั้งสองเดินทางจากกรุงโซลไปยังเมืองปูซานเพื่อเยี่ยมภรรยาเก่าที่ไม่ได้พบกันมานาน แต่ทันทีที่รถไฟกำลังจะเคลื่อนออกจากชานชาลา กลับเกิดเหตุการณ์ที่ทำให้ผู้โดยสารทั้งขบวนต้องช็อก More & Download »

Mechanic 2: Resurrection (2016) | โคตรเพชฌฆาต แค้นข้ามโลก

เจสัน สเตแธม กลับมาอีกครั้งในบทมือสังหาร อาเธอร์ บิชอพ ที่ถูกบีบให้กลับสู่เส้นทางนักฆ่าหลังจากวางมือไปแล้ว โดยเขาต้องทำภารกิจสังหารบุคคลที่อันตรายที่สุดของโลก เพื่อแลกกับชีวิตของคนรักที่ถูกลักพาตัวไป!!! More & Download »

Robinson Crusoe (2016) | โรบินสัน ครูโซ ผจญภัยเกาะมหาสนุก

บนเกาะสวรรค์เล็กๆ ทิวสเดย์ นกแก้วแสนรู้กับเพื่อนๆฝันจะได้ผจญภัยค้นหาโลกกว้าง จนเมื่อพายุโหมเข้าเกาะมันได้พาสิ่งมีชีวิตที่แปลกตาสำหรับทิวสเดย์เข้ามาด้วย นั่นคือมนุษย์ที่ชื่อ โรบินสัน ครูโซ ทิวสเดย์รู้เลยว่าโรบินสันจะเป็นตั๋วเบิกทางสู่โลกภายนอก More & Download »

Sully (2016) | ซัลลี่ ปาฎิหาริย์ที่แม่น้ำฮัดสัน

สร้างขึ้นจากเหตุการณ์จริงกับเรื่องราวของ กัปตัน เชสลีย์ บี. “ซัลลี่” ซัลเลนเบอร์เกอร์ (รับบทโดย ทอม แฮงค์ส) ที่เคยสร้างปาฏิหาริย์ในการนำเครื่องบิน US Airways ไฟท์ 1549 ลงจอดกลางแม่น้ำฮัตสันหลังจากเกิดเหตุการณ์ที่ไม่คาดฝันเมื่อเครื่องบินลำนั้นต้องปะทะกับฝูงนกอย่างรุนแรง More & Download »

Pete’s Dragon (2016) | พีทกับมังกรมหัศจรรย์

พีทกับมังกรมหัศจรรย์ กว่าหลายปีที่คุณมิชชั่ม (โรเบิร์ต เรดฟอร์ด) ชายแก่นักแกะสลักไม้ สร้างความสนุกสนานให้เด็กๆด้วยเรื่องเล่าเกี่ยวกับมังกรร้ายที่อาศัยอยู่ในป่าลึกทางตะวันตกเฉียงเหนือของแปซิฟิก More & Download »

 

[ญี่ปุ่น 18+]-[Mini-HD] A Courtesan with Flowered Skin (2014) | เกอิชาซากุระ (1080p)-[พากย์ไทย 5.1 + ญี่ปุ่น 5.1]-[บรรยายไทย]

Master


 เรื่องย่อ 


      A Courtesan with Flowered Skin ในยุคสมัยเอโดะ อาซากิริ เกอิชาสาวอันดับหนึ่งที่ใช้ชีวิตด้วยการขายร่างกายให ้กับเหล่าชายหนุ่ม เธอมีรอยแผลรูปซากุระบนเรือนร่างที่งดงาม คืนหนึ่งในวันเทศกาลท่ามกลางผู้คนมากมาย เกิดอุบัติเหตุขึ้นกับเธอ และด้วยความช่วยเหลือของฮันจิโร่ อาซากิริที่ไม่เคยมอบใจให้ชายใดก็ตกหลุมรักฮันจิโร่ผ ู้อ่อนโยน เธอวาดฝันถึงชีวิตคู่ของเธอกับฮันจิโร่ แต่ทว่า..ภาพฝันอันสวยงามที่เธอวาดไว้เป็นได้เพียงคว ามฝัน เมื่อโลกแห่งความจริงความรักที่ฝังรากลึกมากเท่าไหร่ ก็ยิ่งถูกผลักไสไปสู่จุดจบแห่งโศกนาฎกรรมมากขึ้นเท่า นั้น

File Info

General
Unique ID : 186765641715795854631323819170410389378 (0x8C81C113027B504DA83D5CD35401DF82)
Complete name : A.Courtesan.with.Flowered.Skin.2014.1080p.DTS.x264.mkv
Format : Matroska
Format version : Version 4 / Version 2
File size : 3.75 GiB
Duration : 1h 42mn
Overall bit rate : 5 243 Kbps
Movie name : www.facebook.com/Firsthidef
Encoded date : UTC 2016-11-04 23:07:48
Writing application : mkvmerge v8.9.0 (‘Father Daughter’) 32bit
Writing library : libebml v1.3.3 + libmatroska v1.4.4

Video
ID : 1
Format : AVC
Format/Info : Advanced Video Codec
Format profile : High@L4.1
Format settings, CABAC : Yes
Format settings, ReFrames : 4 frames
Codec ID : V_MPEG4/ISO/AVC
Bit rate : 4 123 Kbps
Width : 1 920 pixels
Height : 1 032 pixels
Display aspect ratio : 1.85:1
Frame rate mode : Variable
Original frame rate : 23.976 fps
Color space : YUV
Chroma subsampling : 4:2:0
Bit depth : 8 bits
Scan type : Progressive
Bits/(Pixel*Frame) : 0.087
Title : A.Courtesan.with.Flowered.Skin.2014.1080p.HQ.DTS.x264.DVD_Finverr4Movie
Writing library : x264 core 130 r2273 b3065e6
Encoding settings : cabac=1 / ref=4 / deblock=1:-3:-3 / analyse=0x3:0x113 / me=umh / subme=10 / psy=1 / psy_rd=1.00:0.00 / mixed_ref=1 / me_range=64 / chroma_me=1 / trellis=2 / 8x8dct=1 / cqm=0 / deadzone=21,11 / fast_pskip=0 / chroma_qp_offset=-2 / threads=24 / lookahead_threads=2 / sliced_threads=0 / nr=0 / decimate=1 / interlaced=0 / bluray_compat=0 / constrained_intra=0 / bframes=4 / b_pyramid=2 / b_adapt=2 / b_bias=0 / direct=3 / weightb=1 / open_gop=0 / weightp=1 / keyint=250 / keyint_min=23 / scenecut=40 / intra_refresh=0 / rc_lookahead=120 / rc=2pass / mbtree=1 / bitrate=4123 / ratetol=1.0 / qcomp=0.60 / qpmin=0 / qpmax=69 / qpstep=4 / cplxblur=20.0 / qblur=0.5 / vbv_maxrate=99999 / vbv_bufsize=99999 / nal_hrd=none / ip_ratio=1.40 / aq=1:1.00
Language : Japanese
Default : Yes
Forced : Yes

Audio #1
ID : 2
Format : AC-3
Format/Info : Audio Coding 3
Mode extension : CM (complete main)
Format settings, Endianness : Big
Codec ID : A_AC3
Duration : 1h 42mn
Bit rate mode : Constant
Bit rate : 448 Kbps
Channel(s) : 6 channels
Channel positions : Front: L C R, Side: L R, LFE
Sampling rate : 48.0 KHz
Bit depth : 16 bits
Compression mode : Lossy
Stream size : 328 MiB (9%)
Title : TH AC3 DVD MASTER ZAKKY
Language : Thai
Default : Yes
Forced : Yes

Audio #2
ID : 3
Format : AC-3
Format/Info : Audio Coding 3
Mode extension : CM (complete main)
Format settings, Endianness : Big
Codec ID : A_AC3
Duration : 1h 42mn
Bit rate mode : Constant
Bit rate : 640 Kbps
Channel(s) : 6 channels
Channel positions : Front: L C R, Side: L R, LFE
Sampling rate : 48.0 KHz
Bit depth : 16 bits
Compression mode : Lossy
Stream size : 469 MiB (12%)
Title : JP AC3 ZAKKY
Language : Japanese
Default : No
Forced : No

Text #1
ID : 4
Format : VobSub
Codec ID : S_VOBSUB
Codec ID/Info : The same subtitle format used on DVDs
Title : TH 1080P ZAKKY
Language : Thai
Default : No
Forced : No

Text #2
ID : 5
Format : VobSub
Codec ID : S_VOBSUB
Codec ID/Info : The same subtitle format used on DVDs
Title : TH 1080P YELLOW ZAKKY
Language : Thai
Default : No
Forced : No

Text #3
ID : 6
Format : VobSub
Codec ID : S_VOBSUB
Codec ID/Info : The same subtitle format used on DVDs
Title : TH 480P ZAKKY
Language : Thai
Default : No
Forced : No

Text #4
ID : 7
Format : UTF-8
Codec ID : S_TEXT/UTF8
Codec ID/Info : UTF-8 Plain Text
Title : TH SRT OCR ZAKKY
Language : Thai
Default : No
Forced : No

Text #5
ID : 8
Format : PGS
Codec ID : S_HDMV/PGS
Codec ID/Info : The same subtitle format used on BDs/HD-DVDs
Title : TH DN ZAKKY
Language : Thai
Default : Yes
Forced : Yes

Menu
00:00:00.000 : en:00:00:00.000
00:03:46.601 : en:00:03:46.601
00:07:15.060 : en:00:07:15.060
00:10:26.125 : en:00:10:26.125
00:15:37.645 : en:00:15:37.645
00:16:49.175 : en:00:16:49.175
00:24:35.724 : en:00:24:35.724
00:30:43.592 : en:00:30:43.592
00:34:01.164 : en:00:34:01.164
00:37:17.026 : en:00:37:17.026
00:39:27.907 : en:00:39:27.907
00:48:33.744 : en:00:48:33.744
00:52:13.047 : en:00:52:13.047
00:57:20.937 : en:00:57:20.937
01:03:21.673 : en:01:03:21.673
01:05:15.787 : en:01:05:15.787
01:11:58.231 : en:01:11:58.231
01:15:07.837 : en:01:15:07.837
01:18:23.908 : en:01:18:23.908
01:22:39.288 : en:01:22:39.288
01:28:10.202 : en:01:28:10.202
01:33:44.244 : en:01:33:44.244
01:36:42.422 : en:01:36:42.422

 



VIP 1-Part

[ Download ]



Free 1GB/Part

เปลี่ยนชื่อไฟล์ตามลำดับก่อนเเยกไฟล์ เช่น

A.Courtesan.with.Flowered.Skin.part1.rar
A.Courtesan.with.Flowered.Skin.part2.rar
A.Courtesan.with.Flowered.Skin.part3.rar

ไฟล์เสียสามารถซ่อมได้


Leave a Reply

Your email address will not be published. Required fields are marked *