The Fate of the Furious (Fast And Furious 8) (2017) | เร็ว…แรงทะลุนรก 8

วิน ดีเซล, ดเวย์น จอห์นสัน และ มิเชล ร็อดริเกซ นำทีมซิ่งในภาพยนตร์ฮิตถล่มทลายไปทั่วโลกที่อัดแน่นด้วยความมันส์พลังแรงสูงกับ Fast & Furious 8 เวลานี้ ดอม (ดีเซล) และเล็ตตี้ (ร็อดริเกซ) ได้แต่งงานกัน ส่วนไบรอันและมีอาก็ปลดระวางตัวเองไปใช้ชีวิตครอบครัว ขณะที่สมาชิกร่วมแก๊งคนอื่นๆ ก็พ้นจากข้อกล่าวหา และกลับมาใช้ชีวิตอย่างปกติ จนเมื่อสตรีลึกลับนางหนึ่ง (ผู้ชนะรางวัลออสการ์ ชาร์ลิซ เธอรอน) เข้ามาล่อลวงดอมสู่โลกอาชญากรรม โดยที่เขาไม่มีทางเลือกและกลายเป็นคนทรยศต่อครอบครัว More & Download »

Resident Evil:Vendetta (2017) | ล้างบางเชื้อคลั่ง/สงครามแค้นแพร่พันธุ์ไวรัส

หน่วยงาน BSAA “คริส เรดฟิลด์” ได้ทำการสืบสวนหาสาเหตุการแพร่กระจายไวรัสชนิดใหม่ ที่ทำให้คนที่ตายไปแล้วคืนชีพขึ้นมาและบ้าคลั่งทำร้า ยคนอื่น โดยมีเบื้องหลังคือพ่อค้าอาวุธชีวภาพ “เกลน แอรีส” ชายผู้หมายจะครองตลาดค้าอาวุธชีวภาพด้วยการเก็บตกเหล ่าเชื้อไวรัสของบ.ไทรเซล และอัมเบรลล่า More & Download »

John Wick: Chapter 2 (2017) | จอห์น วิค: แรงกว่านรก 2

คีอานู รีฟส์ กลับมารับบทเดิมในภาคต่อของหนังแอ็คชั่นยอดฮิตแห่งปี 2014 John Wick มือสังหารผู้เป็นตำนานที่ถูกบีบให้กลับมาทำงานอีกครั้งหลังจากเกษียณตัวเองไป เพราะอดีตเพื่อนร่วมงานวางแผนเข้าควบคุมองค์กรมือสังหารลับข้ามชาติ ด้วยความผูกพันธ์ดุจพี่น้องต่างสายเลือด จอห์น ให้คำมั่นว่าจะช่วย เขาเดินทางไปกรุงโรมที่ซึ่งเขาต้องเผชิญกับบรรดานักฆ่าที่อันตรายที่สุดในโลก!!! More & Download »

Kong: Skull Island (2017) | คอง: มหาภัยเกาะกะโหลก

จากทีมผู้อำนวยการสร้าง Godzilla นำตำนานความเป็นมาของสัตว์ประหลาดที่ทรงพลังที่สุดอีกตัวหนึ่งมาสร้างสรรค์ใหม่ การผจญภัยอันแปลกใหม่ชวนติดตามจากผู้กำกับจอร์แดน วอกท์-โรเบิร์ตส์ เรื่องราวของทีมนักวิทยาศาสตร์ ทหาร และนักผจญภัย ที่มารวมตัวกันเพื่อสำรวจเกาะในตำนานกลางมหาสมุทรแปซิฟิกซึ่งไม่เคยมีใครสำรวจมาก่อน More & Download »

 

[ฝรั่ง]-[Mini-HD] 3096 Days (2013) | บอกโลก…ว่าต้องรอด (จากเรื่องจริงคดีลักพาตัวสะเทือนขวัญ) (1080p)-[พากย์ไทย 5.1 + อังกฤษ DTS]-[บรรยายไทย + อังกฤษ]

Master


 เรื่องย่อ 


      3096 Days จากคดีลักพาตัวที่สะเทือนขวัญไปทั่วทั้งยุโรปกลายมาเป็นหนังที่ได้รับการจับตามองที่สุดเรื่องหนึ่งในวงการหนังยุโรป เดือนมีนาคมปี 1998 ในเวียนนาประเทศออสเตรีย นาตาสชา แคมปุช เด็กสาววัย 10 ขวบหายตัวไปจากบ้านระหว่างเดินไปโรงเรียน ไม่มีใครพบเบาะแสหรือร่องรอย ตำรวจพยายามสืบเสาะแต่กลับพบความว่างเปล่า จนกระทั่งเวลาผ่านไปกว่า 8 ปี นาตาชาก็ปรากฎตัวขึ้น!

 

File Info

Format : Matroska
Format version : Version 2
File size : 3.52 GiB
Duration : 1h 49mn
Overall bit rate : 4 588 Kbps
Movie name : {MiniHQ} 3096.Days.2013.1080p.DTS.BrRip.x264_Finverr4Movie.com
Encoded date : UTC 2016-09-13 02:28:20
Writing application : mkvmerge v5.0.1 ( Es ist Sommer ) built on Oct 9 2011 11:55:43
Writing library : libebml v1.2.2 + libmatroska v1.3.0

Video
ID : 1
Format : AVC
Format/Info : Advanced Video Codec
Format profile : [email protected]/* */*คำต้องห้าม*
Format settings, CABAC : Yes
Format settings, ReFrames : 5 frames
Codec ID : V_MPEG4/ISO/AVC
Duration : 1h 49mn
Bit rate : 3 335 Kbps
Width : 1 920 pixels
Height : 816 pixels
Display aspect ratio : 2.35:1
Frame rate : 24.000 fps
Color space : YUV
Chroma subsampling : 4:2:0
Bit depth : 8 bits
Scan type : Progressive
Bits/(Pixel*Frame) : 0.089
Stream size : 2.53 GiB (72%)
Title : {MiniHQ} 3096.Days.2013.1080p.DTS.BrRip.x264_Finverr4Movie.com
Writing library : x264 core 144 r2525 40bb568
Encoding settings : cabac=1 / ref=5 / deblock=1:1:1 / analyse=0x3:0x113 / me=umh / subme=10 / psy=1 / psy_rd=1.00:0.00 / mixed_ref=1 / me_range=32 / chroma_me=1 / trellis=2 / 8x8dct=1 / cqm=0 / deadzone=21,11 / fast_pskip=1 / chroma_qp_offset=-4 / threads=6 / lookahead_threads=1 / sliced_threads=0 / nr=0 / decimate=1 / interlaced=0 / bluray_compat=0 / constrained_intra=0 / bframes=5 / b_pyramid=2 / b_adapt=1 / b_bias=0 / direct=3 / weightb=1 / open_gop=0 / weightp=2 / keyint=250 / keyint_min=23 / scenecut=40 / intra_refresh=0 / rc_lookahead=40 / rc=2pass / mbtree=1 / bitrate=3335 / ratetol=1.0 / qcomp=0.60 / qpmin=0 / qpmax=69 / qpstep=4 / cplxblur=20.0 / qblur=0.5 / vbv_maxrate=14000 / vbv_bufsize=14000 / nal_hrd=none / filler=0 / ip_ratio=1.40 / aq=1:1.00
Language : English
Default : Yes
Forced : Yes

Audio #1
ID : 2
Format : AC-3
Format/Info : Audio Coding 3
Mode extension : CM (complete main)
Codec ID : A_AC3
Duration : 1h 49mn
Bit rate mode : Constant
Bit rate : 448 Kbps
Channel(s) : 6 channels
Channel positions : Front: L C R, Side: L R, LFE
Sampling rate : 48.0 KHz
Bit depth : 16 bits
Compression mode : Lossy
Stream size : 352 MiB (10%)
Title : THAI Master 5.1 @ 448 Kbps
Language : Thai
Default : Yes
Forced : Yes

Audio #2
ID : 3
Format : DTS
Format/Info : Digital Theater Systems
Codec ID : A_DTS
Duration : 1h 49mn
Bit rate mode : Constant
Bit rate : 755 Kbps
Channel(s) : 6 channels
Channel positions : Front: L C R, Side: L R, LFE
Sampling rate : 48.0 KHz
Bit depth : 24 bits
Compression mode : Lossy
Stream size : 593 MiB (16%)
Title : ENG DTS 5.1 @ 755 Kbps
Language : English
Default : No
Forced : No

Text #1
ID : 4
Format : VobSub
Codec ID : S_VOBSUB
Codec ID/Info : The same subtitle format used on DVDs
Title : THAI 480p DVD Master
Language : Thai
Default : No
Forced : No

Text #2
ID : 5
Format : VobSub
Codec ID : S_VOBSUB
Codec ID/Info : The same subtitle format used on DVDs
Title : THAI 1080p
Language : Thai
Default : Yes
Forced : Yes

Text #3
ID : 6
Format : VobSub
Codec ID : S_VOBSUB
Codec ID/Info : The same subtitle format used on DVDs
Title : THAI 1080p Yellow
Language : Thai
Default : No
Forced : No

Text #4
ID : 7
Format : VobSub
Codec ID : S_VOBSUB
Codec ID/Info : The same subtitle format used on DVDs
Title : THAI 1080p Out
Language : Thai
Default : No
Forced : No

Text #5
ID : 8
Format : PGS
Codec ID : S_HDMV/PGS
Codec ID/Info : The same subtitle format used on BDs/HD-DVDs
Title : THAI PGS 1080p
Language : Thai
Default : No
Forced : No

Text #6
ID : 9
Format : PGS
Codec ID : S_HDMV/PGS
Codec ID/Info : The same subtitle format used on BDs/HD-DVDs
Title : THAI PGS 1080p Out
Language : Thai
Default : No
Forced : No

Text #7
ID : 10
Format : UTF-8
Codec ID : S_TEXT/UTF8
Codec ID/Info : UTF-8 Plain Text
Title : ENG SRT
Language : English
Default : No
Forced : No

Menu
00:00:00.000 : de:00:00:00.000
00:05:55.167 : de:00:05:55.167
00:10:33.958 : de:00:10:33.958
00:16:33.792 : de:00:16:33.792
00:21:49.917 : de:00:21:49.917
00:26:50.667 : de:00:26:50.667
00:32:45.958 : de:00:32:45.958
00:38:30.875 : de:00:38:30.875
00:44:15.500 : de:00:44:15.500
00:47:32.625 : de:00:47:32.625
00:53:43.792 : de:00:53:43.792
00:59:13.583 : de:00:59:13.583
01:04:20.000 : de:01:04:20.000
01:07:22.542 : de:01:07:22.542
01:14:03.833 : de:01:14:03.833
01:19:53.750 : de:01:19:53.750
01:26:09.542 : de:01:26:09.542
01:30:19.250 : de:01:30:19.250
01:34:51.208 : de:01:34:51.208
01:40:45.583 : de:01:40:45.583
01:46:05.792 : de:01:46:05.792

 



VIP 1-Part

[ Download ]

 


Free 1GB/Part

เปลี่ยนชื่อไฟล์ตามลำดับก่อนเเยกไฟล์ เช่น

3096.Days.part1.rar
3096.Days.part2.rar
3096.Days.part3.rar

ไฟล์เสียสามารถซ่อมได้



Leave a Reply

Your email address will not be published. Required fields are marked *

}